Великан-эгоист / The Selfish Giant (Клио Барнард / Clio Barnard) [2013, Великобритания, драма, BDRip 1080p] VO + Sub Rus, Eng + Original Eng


 

[Цитировать]

Великан-эгоист / The Selfish Giant
Страна: Великобритания
Студия: British Film Institute (BFI), Film4, Moonspun Films
Жанр: драма
Год выпуска: 2013
Продолжительность: 01:30:35
Перевод: Одноголосый закадровый
Cубтитры: русские(Владимир Даль aka kidkong), английские
Оригинальная аудиодорожка: английский
Режиссер: Клио Барнард / Clio Barnard
В ролях: Коннер Чепмен, Шон Томас, Ралф Айнесон, Йен Берфилд, Эверл Уолш, Шон Джилдер, Лоррейн Эшборн, Эллиотт Титтенсор, Ребекка Мэнли, Джон Уолл
Описание: Современная история о буднях парочки закадычных друзей из люмпенского района Брэдфорда — буйного подростка Арбора и добродушного увальня Свифти.
Доп. информация: Внимание! В фильме присутствует ненормативная лексика! И в субтитрах и в звуковой дорожке.
За русскую дорожку спасибо viktor_2838.

Sample
Тип релиза: BDRip 1080p - Don
Контейнер: MKV
Видео: MPEG4 AVC Video, H264, 1920x1040, 24 fps, 15700 Kbps
Аудио: Russian (Dolby AC3, 2 ch, 192 kbps, 16 bits, 48.0 KHz) - VO
Аудио 2: English (DTS, 6 ch, 1509 kbps, 24 bits, 48.0 KHz) - оригинал
Формат субтитров: softsub (SRT)

MediaInfo

General
Unique ID : 199115364549036894795488164348789254073 (0x95CC396B8B87BFEEA6092FD4FBE3E7B9)
Complete name : D:\The Selfish Giant 2013 BDRip 1080p-DON.mkv
Format : Matroska
Format version : Version 4 / Version 2
File size : 11.3 GiB
Duration : 1h 30mn
Overall bit rate : 17.8 Mbps
Encoded date : UTC 2015-08-04 15:59:05
Writing application : mkvmerge v6.1.0 ('Old Devil') built on Mar 2 2013 14:32:37
Writing library : libebml v1.3.0 + libmatroska v1.4.0
Video
ID : 1
Format : AVC
Format/Info : Advanced Video Codec
Format profile : High@L4.1
Format settings, CABAC : Yes
Format settings, ReFrames : 4 frames
Codec ID : V_MPEG4/ISO/AVC
Duration : 1h 30mn
Bit rate : 15.7 Mbps
Width : 1 920 pixels
Height : 1 040 pixels
Display aspect ratio : 1.85:1
Frame rate mode : Constant
Frame rate : 24.000 fps
Color space : YUV
Chroma subsampling : 4:2:0
Bit depth : 8 bits
Scan type : Progressive
Bits/(Pixel*Frame) : 0.329
Stream size : 9.96 GiB (88%)
Writing library : x264 core 140 r2377 1ca7bb9
Encoding settings : cabac=1 / ref=4 / deblock=1:-3:-3 / analyse=0x3:0x133 / me=umh / subme=10 / psy=1 / psy_rd=1.05:0.00 / mixed_ref=1 / me_range=48 / chroma_me=1 / trellis=2 / 8x8dct=1 / cqm=0 / deadzone=21,11 / fast_pskip=0 / chroma_qp_offset=-2 / threads=12 / lookahead_threads=2 / sliced_threads=0 / nr=0 / decimate=0 / interlaced=0 / bluray_compat=0 / constrained_intra=0 / bframes=8 / b_pyramid=2 / b_adapt=2 / b_bias=0 / direct=3 / weightb=1 / open_gop=0 / weightp=2 / keyint=240 / keyint_min=24 / scenecut=40 / intra_refresh=0 / rc_lookahead=60 / rc=crf / mbtree=0 / crf=17.3 / qcomp=0.70 / qpmin=0 / qpmax=69 / qpstep=4 / vbv_maxrate=62500 / vbv_bufsize=78125 / crf_max=0.0 / nal_hrd=none / filler=0 / ip_ratio=1.20 / pb_ratio=1.10 / aq=1:0.80
Language : English
Default : Yes
Forced : No
Audio #1
ID : 2
Format : AC-3
Format/Info : Audio Coding 3
Mode extension : CM (complete main)
Format settings, Endianness : Big
Codec ID : A_AC3
Duration : 1h 30mn
Bit rate mode : Constant
Bit rate : 192 Kbps
Channel count : 2 channels
Channel positions : Front: L R
Sampling rate : 48.0 KHz
Bit depth : 16 bits
Compression mode : Lossy
Stream size : 124 MiB (1%)
Language : Russian
Default : Yes
Forced : Yes
Audio #2
ID : 3
Format : DTS
Format/Info : Digital Theater Systems
Mode : 16
Format settings, Endianness : Big
Codec ID : A_DTS
Duration : 1h 30mn
Bit rate mode : Constant
Bit rate : 1 509 Kbps
Channel count : 6 channels
Channel positions : Front: L C R, Side: L R, LFE
Sampling rate : 48.0 KHz
Bit depth : 24 bits
Compression mode : Lossy
Stream size : 978 MiB (8%)
Language : English
Default : No
Forced : No
Text #1
ID : 4
Format : UTF-8
Codec ID : S_TEXT/UTF8
Codec ID/Info : UTF-8 Plain Text
Title : Владимир Даль
Language : Russian
Default : No
Forced : No
Text #2
ID : 5
Format : UTF-8
Codec ID : S_TEXT/UTF8
Codec ID/Info : UTF-8 Plain Text
Language : English
Default : No
Forced : No
Menu
00:00:00.000 : en:00:00:00.000
00:07:54.708 : en:00:07:54.708
00:14:47.458 : en:00:14:47.458
00:26:26.875 : en:00:26:26.875
00:33:49.208 : en:00:33:49.208
00:40:08.042 : en:00:40:08.042
00:46:45.042 : en:00:46:45.042
00:55:14.417 : en:00:55:14.417
01:02:48.167 : en:01:02:48.167
01:11:01.750 : en:01:11:01.750
01:18:45.667 : en:01:18:45.667
01:24:44.125 : en:01:24:44.125

Скриншоты

Source / Don




Показать сообщения:    

Текущее время: 22-Янв 04:44

Часовой пояс: UTC + 3


Вы не можете начинать темы
Вы не можете отвечать на сообщения
Вы не можете редактировать свои сообщения
Вы не можете удалять свои сообщения
Вы не можете голосовать в опросах
Вы не можете прикреплять файлы к сообщениям
Вы не можете скачивать файлы