Великан-эгоист / The Selfish Giant (Клио Барнард / Clio Barnard) [2013, Великобритания, драма, BDRip 720p] VO + Sub Rus, Eng + Original Eng


 

[Цитировать]

Великан-эгоист / The Selfish Giant
Страна: Великобритания
Студия: British Film Institute (BFI), Film4, Moonspun Films
Жанр: драма
Год выпуска: 2013
Продолжительность: 01:30:35
Перевод: Одноголосый закадровый
Cубтитры: русские(Владимир Даль aka kidkong), английские
Оригинальная аудиодорожка: английский
Режиссер: Клио Барнард / Clio Barnard
В ролях: Коннер Чепмен, Шон Томас, Ралф Айнесон, Йен Берфилд, Эверл Уолш, Шон Джилдер, Лоррейн Эшборн, Эллиотт Титтенсор, Ребекка Мэнли, Джон Уолл
Описание: Современная история о буднях парочки закадычных друзей из люмпенского района Брэдфорда — буйного подростка Арбора и добродушного увальня Свифти.
Доп. информация: Внимание! В фильме присутствует ненормативная лексика! И в субтитрах и в звуковой дорожке.
За русскую дорожку спасибо viktor_2838.

Sample
Тип релиза: BDRip 720p - TayTO
Контейнер: MKV
Видео: MPEG4 AVC Video, H264, 1280x694, 24 fps, 5952 Kbps
Аудио: Russian (Dolby AC3, 2 ch, 192 kbps, 16 bits, 48.0 KHz) - VO
Аудио 2: English (AC3, 6 ch, 640 kbps, 16 bits, 48.0 KHz) - оригинал
Формат субтитров: softsub (SRT)

лог x264

x264 [info]: frame I:823 Avg QP:12.49 size:120470
x264 [info]: frame P:30500 Avg QP:14.35 size: 59758
x264 [info]: frame B:99122 Avg QP:16.06 size: 22338
x264 [info]: consecutive B-frames: 2.6% 4.6% 13.6% 14.4% 11.7% 47.0% 3.7% 2.5%

MediaInfo

General
Unique ID : 226959101288535341284150526469665288152 (0xAABEBBA1732F50F6A5FCCC07C6C16FD8)
Complete name : D:\The Selfish Giant 2013 BDRip 720p.mkv
Format : Matroska
Format version : Version 4 / Version 2
File size : 4.38 GiB
Duration : 1h 30mn
Overall bit rate : 6 922 Kbps
Encoded date : UTC 2015-08-04 09:58:54
Writing application : mkvmerge v6.1.0 ('Old Devil') built on Mar 2 2013 14:32:37
Writing library : libebml v1.3.0 + libmatroska v1.4.0
Video
ID : 1
Format : AVC
Format/Info : Advanced Video Codec
Format profile : High@L4.1
Format settings, CABAC : Yes
Format settings, ReFrames : 9 frames
Codec ID : V_MPEG4/ISO/AVC
Duration : 1h 30mn
Bit rate : 5 952 Kbps
Width : 1 280 pixels
Height : 694 pixels
Display aspect ratio : 1.85:1
Frame rate mode : Constant
Frame rate : 24.000 fps
Color space : YUV
Chroma subsampling : 4:2:0
Bit depth : 8 bits
Scan type : Progressive
Bits/(Pixel*Frame) : 0.279
Stream size : 3.77 GiB (86%)
Writing library : x264 core 142 r2389 956c8d8
Encoding settings : cabac=1 / ref=9 / deblock=1:-3:-3 / analyse=0x3:0x133 / me=tesa / subme=11 / psy=1 / psy_rd=1.05:0.00 / mixed_ref=1 / me_range=16 / chroma_me=1 / trellis=2 / 8x8dct=1 / cqm=0 / deadzone=21,11 / fast_pskip=0 / chroma_qp_offset=-2 / threads=12 / lookahead_threads=2 / sliced_threads=0 / nr=0 / decimate=1 / interlaced=0 / bluray_compat=0 / constrained_intra=0 / bframes=7 / b_pyramid=2 / b_adapt=2 / b_bias=0 / direct=3 / weightb=1 / open_gop=0 / weightp=2 / keyint=250 / keyint_min=24 / scenecut=40 / intra_refresh=0 / rc=crf / mbtree=0 / crf=15.8 / qcomp=0.70 / qpmin=0 / qpmax=69 / qpstep=4 / ip_ratio=1.40 / pb_ratio=1.30 / aq=1:0.80
Language : English
Default : Yes
Forced : No
Matrix coefficients : BT.709
Audio #1
ID : 2
Format : AC-3
Format/Info : Audio Coding 3
Mode extension : CM (complete main)
Format settings, Endianness : Big
Codec ID : A_AC3
Duration : 1h 30mn
Bit rate mode : Constant
Bit rate : 192 Kbps
Channel count : 2 channels
Channel positions : Front: L R
Sampling rate : 48.0 KHz
Bit depth : 16 bits
Compression mode : Lossy
Stream size : 124 MiB (3%)
Language : Russian
Default : Yes
Forced : Yes
Audio #2
ID : 3
Format : AC-3
Format/Info : Audio Coding 3
Mode extension : CM (complete main)
Format settings, Endianness : Big
Codec ID : A_AC3
Duration : 1h 30mn
Bit rate mode : Constant
Bit rate : 640 Kbps
Channel count : 6 channels
Channel positions : Front: L C R, Side: L R, LFE
Sampling rate : 48.0 KHz
Bit depth : 16 bits
Compression mode : Lossy
Stream size : 415 MiB (9%)
Language : English
Default : No
Forced : No
Text #1
ID : 4
Format : UTF-8
Codec ID : S_TEXT/UTF8
Codec ID/Info : UTF-8 Plain Text
Title : Владимир Даль
Language : Russian
Default : No
Forced : No
Text #2
ID : 5
Format : UTF-8
Codec ID : S_TEXT/UTF8
Codec ID/Info : UTF-8 Plain Text
Language : English
Default : No
Forced : No
Menu
00:00:00.000 : en:00:00:00.000
00:07:54.708 : en:00:07:54.708
00:14:47.458 : en:00:14:47.458
00:26:26.875 : en:00:26:26.875
00:33:49.208 : en:00:33:49.208
00:40:08.042 : en:00:40:08.042
00:46:45.042 : en:00:46:45.042
00:55:14.417 : en:00:55:14.417
01:02:48.167 : en:01:02:48.167
01:11:01.750 : en:01:11:01.750
01:18:45.667 : en:01:18:45.667
01:24:44.125 : en:01:24:44.125

Скриншоты

Source / TayTO



Показать сообщения:    

Текущее время: 03-Дек 05:28

Часовой пояс: UTC + 3


Вы не можете начинать темы
Вы не можете отвечать на сообщения
Вы не можете редактировать свои сообщения
Вы не можете удалять свои сообщения
Вы не можете голосовать в опросах
Вы не можете прикреплять файлы к сообщениям
Вы не можете скачивать файлы