Порнография / Pornografia (Ян Якуб Кольский / Jan Jakub Kolski) [2003, Польша, Франция, драма, HDTV 1080i] Rus sub + Original Pol


 

[Цитировать]

Порнография / Pornografia- Страна: Польша, Франция
Студия: Canal+, Centre National de la Cinématographie (CNC), Eurimages, MACT Productions, Telewizja Polska (TVP), Wytwórnia Filmów Dokumentalnych i Fabularnych (WFDiF)
Жанр: драма
Год выпуска: 2003
Продолжительность: 01:52:34-Перевод: Субтитры (Владимир Скиф)
Cубтитры: русские
Оригинальная аудиодорожка: польский-Режиссер: Ян Якуб Кольский / Jan Jakub Kolski
В ролях: Гжегош Дамецкий, Гражина Блецкая-Кольская, Ян Фрич, Адам Ференцы, Кшиштоф Глобиш- -Описание: 1943 год, оккупированная Польша. Два престарелых художника попадают в имение своего друга, где надеются найти покой от кошмара оккупации. Вскоре их захватывают отношения двух подростков — дочки хозяина имения Гени и парня Кароля, гостившего в этой семье. В представлении Витольда и Фридерика они создают идеал незрелой красоты, но в жизни не проявляют никакого интереса друг к другу. Друзья, движимые стремлением хотя бы как-то обосновать остатки собственных представлений о мире, сведенных на нет войной и хаосом, стремятся любой ценой приблизить друг к другу Геню и Кароля, создав таким образом идеальный симбиоз юной красоты. Витольд и Фридерик начинают режиссировать опасный спектакль, задействуя жителей имения как невольных актеров, а реальные страсти, чувство, внутренние интриги и внешние опасности — как драматургические средства этой пьесы в реальном времени.-Семпл: http://sendfile.su/1143150-Тип релиза: HDTV 1080i
Контейнер: MKV
Видео: 1920x1080i (16:9), 25.000 fps, AVC, ~5276 Kbps, 0.102 bits/pixel
Аудио 1: Polish, 48.0 KHz, AC3, 6 ch, 384 Kbps
Аудио 2: Polish, 48.0 KHz, AC3, 2 ch, 192 Kbps

MediaInfo

GeneralUnique ID : 214370279478679540780591340166340257511 (0xA14636CB8D71E176A138E7A22151A6E7)Complete name : Pornografia 2003 TVPHD 1080i.rus sub.mkvFormat : MatroskaFormat version : Version 4 / Version 2File size : 4.69 GiBDuration : 1h 52mnOverall bit rate : 5 971 KbpsEncoded date : UTC 2015-08-03 19:40:30Writing application : mkvmerge v8.2.0 ('World of Adventure') 64bitWriting library : libebml v1.3.1 + libmatroska v1.4.2
VideoID : 1Format : AVCFormat/Info : Advanced Video CodecFormat profile : High@L4Format settings, CABAC : YesFormat settings, ReFrames : 4 framesCodec ID : V_MPEG4/ISO/AVCDuration : 1h 52mnBit rate : 5 276 KbpsWidth : 1 920 pixelsHeight : 1 080 pixelsDisplay aspect ratio : 16:9Frame rate mode : ConstantFrame rate : 25.000 fpsColor space : YUVChroma subsampling : 4:2:0Bit depth : 8 bitsScan type : InterlacedScan order : Top Field FirstBits/(Pixel*Frame) : 0.102Stream size : 4.15 GiB (88%)Language : PolishDefault : YesForced : NoColor range : LimitedColor primaries : BT.709Transfer characteristics : BT.709Matrix coefficients : BT.709
Audio #1ID : 2Format : AC-3Format/Info : Audio Coding 3Mode extension : CM (complete main)Format settings, Endianness : BigCodec ID : A_AC3Duration : 1h 52mnBit rate mode : ConstantBit rate : 384 KbpsChannel(s) : 6 channelsChannel positions : Front: L C R, Side: L R, LFESampling rate : 48.0 KHzCompression mode : LossyStream size : 309 MiB (6%)Language : PolishDefault : YesForced : No
Audio #2ID : 3Format : AC-3Format/Info : Audio Coding 3Mode extension : CM (complete main)Format settings, Endianness : BigCodec ID : A_AC3Duration : 1h 52mnBit rate mode : ConstantBit rate : 192 KbpsChannel(s) : 2 channelsChannel positions : Front: L RSampling rate : 48.0 KHzCompression mode : LossyStream size : 155 MiB (3%)Language : PolishDefault : NoForced : No
TextID : 4Format : UTF-8Codec ID : S_TEXT/UTF8Codec ID/Info : UTF-8 Plain TextLanguage : RussianDefault : YesForced : No
Фрагмент субтитров">

Скриншоты Фрагмент субтитров


205
00:36:43,200 --> 00:36:45,070
Доброе утро!
206
00:36:46,160 --> 00:36:50,990
Доброе утро!
Они не понимают не единого слова.
207
00:36:57,040 --> 00:37:00,150
Запри лошадей.
И коров тоже.
208
00:37:01,040 --> 00:37:02,990
- Яйца.
- Да, яйца.
209
00:37:03,120 --> 00:37:04,150
- Минутку.
210
00:37:19,200 --> 00:37:23,990
Вот ваши яйца, пожалуйста.
Нет-нет, не возьму.
211
00:37:24,240 --> 00:37:28,070
Это подарок
от наших кур и коров.
212
00:37:28,200 --> 00:37:30,110
Зоська! Молока!
213
00:37:30,240 --> 00:37:32,150
Вот.
214
00:37:40,160 --> 00:37:41,990
Держите.
215
00:37:43,080 --> 00:37:45,190
- Спасибо.
- Приятного дня.
216
00:37:46,080 --> 00:37:48,070
Андрес... яйца!
217
00:37:53,200 --> 00:37:55,230
Спасибо! До свидания!
218
00:37:57,280 --> 00:37:59,030
До свидания!
219
00:38:09,200 --> 00:38:14,030
Скатертью дорога!
И не возвращайтесь никогда.
220
00:40:19,040 --> 00:40:20,990
Я всегда напиваюсь...
221
00:40:24,120 --> 00:40:26,070
... когда боюсь.
222
00:40:33,040 --> 00:40:36,190
У меня повсюду припасены бутылки
на такой случай.
223
00:40:41,200 --> 00:40:43,990
А Вам бывает страшно?
224
00:40:45,200 --> 00:40:46,990
Никогда.
225
00:40:52,120 --> 00:40:53,150
Никогда?
226
00:40:59,040 --> 00:40:59,990
Иногда.
227
00:41:28,040 --> 00:41:30,190
- Испугались?
- Еще как!
228
00:41:33,120 --> 00:41:34,990
Тогда пейте.
229
00:41:36,200 --> 00:41:38,030
И выпью.
230
00:42:12,120 --> 00:42:13,100
Привет!
231
00:42:13,240 --> 00:42:15,070
Куда собираешься?
232
00:42:16,040 --> 00:42:18,190
В деревню за керосином.
233
00:42:19,080 --> 00:42:21,990
- Возьмешь с собой?
- Пожалуйста.
234
00:42:29,200 --> 00:42:33,070
- А пан Фредерик с нами поедет?
- Нет, спасибо.
235
00:42:35,200 --> 00:42:38,030
Я буду ухаживать за клумбами.



Показать сообщения:    

Текущее время: 04-Дек 15:14

Часовой пояс: UTC + 3


Вы не можете начинать темы
Вы не можете отвечать на сообщения
Вы не можете редактировать свои сообщения
Вы не можете удалять свои сообщения
Вы не можете голосовать в опросах
Вы не можете прикреплять файлы к сообщениям
Вы не можете скачивать файлы