Исчезновение Элеанор Ригби / The Disappearance of Eleanor Rigby: Them (Нед Бенсон / Ned Benson) [2014, США, драма, мелодрама, BDRip 720p] Dub (IPTV) + Sub Eng + Original Eng


 

[Цитировать]

Исчезновение Элеанор Ригби / The Disappearance of Eleanor Rigby: Them
Страна: США
Студия: Unison Films, Myriad Pictures, Kim and Jim Productions
Жанр: драма,мелодрама
Год выпуска: 2014
Продолжительность: 02:02:52
Перевод: Профессиональный (дублированный) IPTV
Cубтитры: английские
Оригинальная аудиодорожка: английский
Режиссер: Нед Бенсон / Ned Benson
В ролях: Джеймс МакЭвой, Джессика Честейн, Нина Арианда, Виола Дэвис, Билл Хейдер, Киран Хайндс, Изабель Юппер, Уильям Хёрт, Джесс Вейкслер, Никки М. Джеймс
Описание: Конор и Элеанор живут на Манхэттене. Они женаты уже несколько лет, хотя очень разные. Она учится в университете. Он — владелец небольшого ресторанчика. Ее семья (папа — профессор, мама — скрипачка) в свое время не очень благосклонно отнеслась к выбору дочери. Его отца вообще мало интересуют дела сына. Но для Конора и Элеанор все это не имеет никакого значения, потому что они создали свой собственный мир, наполненный любовью. Жизнь для них словно легкая, интересная и красивая игра. Но драматические события меняют всё, их идеальный мир рушится, и Элеанор решает исчезнуть…

Тип релиза: BDRip 720p
Контейнер: MKV
Видео: MPEG-4 AVC, 5172 Кбит/с, 1280x536, 23,976 fps
Аудио: Rus, AC3, 448 kb/s (6 ch), 48 kHz
Аудио 2: Eng, AC3, 640 kb/s (6 ch), 48 kHz
Формат субтитров: softsub (SRT)

MediaInfo

Format : Matroska
Format version : Version 4 / Version 2
File size : 5.48 GiB
Duration : 2h 2mn
Overall bit rate : 6 387 Kbps
Movie name : Исчезновение Элеанор Ригби. (Tonik)
Encoded date : UTC 2015-08-04 08:10:59
Writing application : mkvmerge v7.1.0 ('Good Love') 64bit built on Jul 27 2014 13:06:55
Writing library : libebml v1.3.0 + libmatroska v1.4.1
_STATISTICS_WRITING_APP : mkvmerge v7.1.0 ('Good Love') 64bit built on Jul 27 2014 13:06:55
_STATISTICS_WRITING_DATE_UTC : 2015-08-04 08:10:59
_STATISTICS_TAGS : BPS DURATION NUMBER_OF_FRAMES NUMBER_OF_BYTES
DURATION : 02:02:52.384000000
NUMBER_OF_FRAMES : 230387
NUMBER_OF_BYTES : 412853504
Video
ID : 1
Format : AVC
Format/Info : Advanced Video Codec
Format profile : High@L4.1
Format settings, CABAC : Yes
Format settings, ReFrames : 12 frames
Codec ID : V_MPEG4/ISO/AVC
Bit rate : 5 172 Kbps
Width : 1 280 pixels
Height : 536 pixels
Display aspect ratio : 2.40:1
Frame rate mode : Variable
Original frame rate : 23.976 fps
Color space : YUV
Chroma subsampling : 4:2:0
Bit depth : 8 bits
Scan type : Progressive
Writing library : x264 core 142 r2431+42 c69a006 tMod [8-bit@all X86_64]
Encoding settings : cabac=1 / ref=12 / deblock=1:-3:-3 / analyse=0x3:0x133 / me=umh / subme=10 / psy=1 / fade_compensate=0.00 / psy_rd=1.00:0.00 / mixed_ref=1 / me_range=32 / chroma_me=1 / trellis=2 / 8x8dct=1 / cqm=0 / deadzone=21,11 / fast_pskip=0 / chroma_qp_offset=-2 / threads=12 / lookahead_threads=2 / sliced_threads=0 / nr=0 / decimate=0 / interlaced=0 / bluray_compat=0 / constrained_intra=0 / fgo=0 / bframes=8 / b_pyramid=2 / b_adapt=2 / b_bias=0 / direct=3 / weightb=1 / open_gop=0 / weightp=2 / keyint=250 / keyint_min=23 / scenecut=40 / intra_refresh=0 / rc_lookahead=60 / rc=crf / mbtree=1 / crf=13.0000 / qcomp=0.70 / qpmin=0:0:0 / qpmax=69:69:69 / qpstep=4 / vbv_maxrate=50000 / vbv_bufsize=62500 / crf_max=0.0 / nal_hrd=none / filler=0 / ip_ratio=1.30 / aq=4:0.80 / aq-sensitivity=10.00 / aq-factor=1.00:1.00:1.00 / aq2=0 / aq3=0
Language : English
Default : Yes
Forced : No
Audio #1
ID : 2
Format : AC-3
Format/Info : Audio Coding 3
Mode extension : CM (complete main)
Format settings, Endianness : Big
Codec ID : A_AC3
Duration : 2h 2mn
Bit rate mode : Constant
Bit rate : 448 Kbps
Channel(s) : 6 channels
Channel positions : Front: L C R, Side: L R, LFE
Sampling rate : 48.0 KHz
Bit depth : 16 bits
Compression mode : Lossy
Stream size : 394 MiB (7%)
Title : IPTV
Language : Russian
Default : Yes
Forced : No
Audio #2
ID : 3
Format : AC-3
Format/Info : Audio Coding 3
Mode extension : CM (complete main)
Format settings, Endianness : Big
Codec ID : A_AC3
Duration : 2h 2mn
Bit rate mode : Constant
Bit rate : 640 Kbps
Channel(s) : 6 channels
Channel positions : Front: L C R, Side: L R, LFE
Sampling rate : 48.0 KHz
Bit depth : 16 bits
Compression mode : Lossy
Stream size : 562 MiB (10%)
Language : English
Default : No
Forced : No
Text #1
ID : 4
Format : UTF-8
Codec ID : S_TEXT/UTF8
Codec ID/Info : UTF-8 Plain Text
Language : English
Default : No
Forced : No
Text #2
ID : 5
Format : UTF-8
Codec ID : S_TEXT/UTF8
Codec ID/Info : UTF-8 Plain Text
Title : SDH
Language : English
Default : No
Forced : No
Menu
00:00:00.000 : en:00:00:00.000
00:04:30.687 : en:00:04:30.687
00:10:32.590 : en:00:10:32.590
00:14:50.681 : en:00:14:50.681
00:21:25.451 : en:00:21:25.451
00:27:22.474 : en:00:27:22.474
00:33:59.120 : en:00:33:59.120
00:41:08.091 : en:00:41:08.091
00:48:45.381 : en:00:48:45.381
00:54:49.703 : en:00:54:49.703
01:02:59.859 : en:01:02:59.859
01:12:27.927 : en:01:12:27.927
01:19:12.998 : en:01:19:12.998
01:25:15.944 : en:01:25:15.944
01:30:20.332 : en:01:30:20.332
01:34:38.172 : en:01:34:38.172
01:39:10.194 : en:01:39:10.194
01:47:05.878 : en:01:47:05.878
01:53:27.467 : en:01:53:27.467
01:57:09.522 : en:01:57:09.522

Скриншоты




Показать сообщения:    

Текущее время: 10-Дек 04:11

Часовой пояс: UTC + 3


Вы не можете начинать темы
Вы не можете отвечать на сообщения
Вы не можете редактировать свои сообщения
Вы не можете удалять свои сообщения
Вы не можете голосовать в опросах
Вы не можете прикреплять файлы к сообщениям
Вы не можете скачивать файлы