Витус / Vitus (Фреди М. Мюрер / Fredi M. Murer) [2006, Швейцария, драма, музыка, WEB-DL 720p] MVO (ТК "Культура") + Sub Rus, Eng + Original Ger


 

[Цитировать]

Витус / Vitus
Страна: Швейцария
Студия: arte, FMM Film и др.
Жанр: драма, музыка
Год выпуска: 2006
Продолжительность: 02:02:49
Перевод: Профессиональный (многоголосый закадровый) ТК "Культура"
Cубтитры: русские, английские
Оригинальная аудиодорожка: немецкий
Режиссер: Фреди М. Мюрер / Fredi M. Murer
В ролях: Фабрицио Борсани, Тео Георгиу, Юлика Йенкинс, Урс Юккер, Бруно Ганц, Елени Хаупт, Кристина Лыкова, Тамара Скарпеллини, Даниэль Рор, Норберт Швинтек
Описание: Фильм рассказывает историю мальчика-вундеркинда, требовательные родители которого строят в отношении него самые честолюбивые планы — они хотят, чтобы он стал выдающимся пианистом. Однако, наступает день, когда мальчик Витус отказывается следовать плану и удовлетворять амбиции родителей, потому что он хочет следовать за своей собственной звездой.
Доп. информация: В видеоряд вшиты неотключаемые английские субтитры. На всякий случай в контейнер также добавлены английские субтитры(SRT) - вдруг кому понадобятся. За русские субтитры спасибо HJdsaksjdklklnjkhbdsfsl . За русскую дорожку студии Пифагор по заказу ТК "Культура" спасибо murym65.
Sample
Тип релиза: WEB-DL 720p
Контейнер: MKV
Видео: MPEG4 AVC Video, H264, 16:9, 1280x690, 23.976 fps, 3879 kbps
Аудио: Russian (AC3, 2 ch, 192 kbps, 16 bits, 48.0 KHz) - MVO
Аудио 2: German (AC3, 6 ch, 448 kbps, 16 bits, 48.0 KHz) - оригинал
Формат субтитров: hardsub (неотключаемые), softsub (SRT)

MediaInfo

General
Unique ID : 180533315759949048306650478819228949857 (0x87D173AE497FD1978BDAF2AA6A969D61)
Complete name : K:\Vitus 2006 WEB-DL 720p.mkv
Format : Matroska
Format version : Version 4 / Version 2
File size : 3.96 GiB
Duration : 2h 2mn
Overall bit rate : 4 611 Kbps
Encoded date : UTC 2015-08-03 17:35:34
Writing application : mkvmerge v6.1.0 ('Old Devil') built on Mar 2 2013 14:32:37
Writing library : libebml v1.3.0 + libmatroska v1.4.0
Video
ID : 1
Format : AVC
Format/Info : Advanced Video Codec
Format profile : High@L3.1
Format settings, CABAC : No
Format settings, ReFrames : 2 frames
Format settings, GOP : N=1
Codec ID : V_MPEG4/ISO/AVC
Duration : 2h 2mn
Bit rate : 3 879 Kbps
Width : 1 280 pixels
Height : 690 pixels
Display aspect ratio : 1.85:1
Frame rate mode : Constant
Frame rate : 23.976 fps
Color space : YUV
Chroma subsampling : 4:2:0
Bit depth : 8 bits
Scan type : Progressive
Bits/(Pixel*Frame) : 0.183
Stream size : 3.33 GiB (84%)
Language : English
Default : Yes
Forced : No
Color primaries : BT.709
Transfer characteristics : BT.709
Matrix coefficients : BT.709
Audio #1
ID : 2
Format : AC-3
Format/Info : Audio Coding 3
Mode extension : CM (complete main)
Format settings, Endianness : Big
Codec ID : A_AC3
Duration : 2h 2mn
Bit rate mode : Constant
Bit rate : 192 Kbps
Channel count : 2 channels
Channel positions : Front: L R
Sampling rate : 48.0 KHz
Bit depth : 16 bits
Compression mode : Lossy
Stream size : 169 MiB (4%)
Language : Russian
Default : Yes
Forced : Yes
Audio #2
ID : 3
Format : AC-3
Format/Info : Audio Coding 3
Mode extension : CM (complete main)
Format settings, Endianness : Big
Codec ID : A_AC3
Duration : 2h 2mn
Bit rate mode : Constant
Bit rate : 448 Kbps
Channel count : 6 channels
Channel positions : Front: L C R, Side: L R, LFE
Sampling rate : 48.0 KHz
Bit depth : 16 bits
Compression mode : Lossy
Stream size : 394 MiB (10%)
Language : German
Default : No
Forced : No
Text #1
ID : 4
Format : UTF-8
Codec ID : S_TEXT/UTF8
Codec ID/Info : UTF-8 Plain Text
Language : Russian
Default : No
Forced : No
Text #2
ID : 5
Format : UTF-8
Codec ID : S_TEXT/UTF8
Codec ID/Info : UTF-8 Plain Text
Language : English
Default : No
Forced : No
Menu
00:00:00.000 : en:Top Ten List
00:04:33.000 : en:A Real Request
00:08:37.000 : en:Not Like Other Kids
00:14:43.000 : en:Dinner Party
00:21:04.000 : en:Listening In
00:24:43.000 : en:Soaring Chance
00:30:50.000 : en:Red Handed
00:35:41.000 : en:Closed Out
00:38:45.000 : en:Standing Out
00:42:29.000 : en:Hold Your Horses
00:46:01.000 : en:Opportunity Knocks
00:50:44.000 : en:Flying Away
00:55:58.000 : en:Vitus Test
00:58:23.000 : en:Fresh Start
01:01:55.000 : en:Musical Motivation
01:06:48.000 : en:Keeping a Secret
01:08:58.000 : en:Talking Rubbish
01:14:29.000 : en:Stock Market Game
01:17:55.000 : en:Big Win
01:21:10.000 : en:A Little Gift
01:25:51.000 : en:Negotiating Terms
01:30:17.000 : en:Making Music
01:33:04.000 : en:Older Woman
01:38:23.000 : en:Early Flight
01:44:15.000 : en:Meeting the doctor
01:49:46.000 : en:Family on the Line
01:53:45.000 : en:Reaching for the Starts
01:56:08.000 : en:Important Attendance

Скриншоты




Показать сообщения:    

Текущее время: 10-Дек 00:21

Часовой пояс: UTC + 3


Вы не можете начинать темы
Вы не можете отвечать на сообщения
Вы не можете редактировать свои сообщения
Вы не можете удалять свои сообщения
Вы не можете голосовать в опросах
Вы не можете прикреплять файлы к сообщениям
Вы не можете скачивать файлы