Женщина есть женщина / Une femme est une femme / A Woman Is a Woman (Жан-Люк Годар / Jean-Luc Godard) [1961 г., Франция, Италия, комедия, мелодрама, BDRip 720p] 2x MVO (ОРТ, Мастер Видео) + Original Fre + Sub (Rus, Eng, Jap)


 

[Цитировать]

Женщина есть женщина / Une femme est une femme- Год выпуска: 1961
Страна: Франция, Италия
Жанр: комедия, мелодрама
Продолжительность: 01:23:50
Перевод 1: Профессиональный (многоголосый закадровый) ОРТ
Перевод 2: Профессиональный (многоголосый закадровый) Мастер Видео
Оригинальная аудиодорожка: Французская
Cубтитры: Русские (форсированные на песни и экранный текст; полные), английские (Criterion, StudioCanal), японские-Режиссер: Жан-Люк Годар / Jean-Luc Godard
В ролях: Анна Карина /Anna Karina/, Жан-Поль Бельмондо /Jean-Paul Belmondo/, Жан-Клод Бриали /Jean-Claude Brialy/, Николь Пакен /Nicole Paquin/, Мари Дюбуа /Marie Dubois/, Жанна Моро /Jeanne Moreau/ и др.-Описание:
Героиня фильма, чувствуя внутреннюю неудовлетворенность скучной жизнью, решает, что выйти из этого замкнутого круга ей поможет ребенок. Однако окружающие ее мужчины не могут понять ее порыва, и ей стоит больших усилий добиться своего.-За дорожку ОРТ спасибо MinimalBoy.
Перевод песни Азнавура: Ирина Олехова
| IMDb | Сэмпл-Качество: BDRip 720p (FiDELiO)
Контейнер: MKV
Видео: x264, 1280x544 (2.35:1), 23.976 fps, 4960 kbps
Аудио 1: Русский AC3 1.0, 48 kHz, 192 kbps — ОРТ
Аудио 2: Русский AC3 1.0, 48 kHz, 192 kbps — Мастер Видео
Аудио 3: Французский AC3 2.0, 48 kHz, 640 kbps
Формат субтитров: softsub (SRT)

Скриншоты


MI

General
Unique ID : 197484128724644716640611151711914431247 (0x94920F48D71095B09974B32CBA08130F)
Complete name : Une.Femme.Est.Une.Femme.1961.FRENCH.720p.BluRay.x264-FiDELiO.mkv
Format : Matroska
Format version : Version 2
File size : 3.56 GiB
Duration : 1h 23mn
Overall bit rate : 6 080 Kbps
Movie name : Une femme est une femme / Женщина есть женщина (1961) – RuTracker
Encoded date : UTC 2015-07-29 19:12:04
Writing application : mkvmerge v7.5.0 ('Glass Culture') 64bit built on Jan 4 2015 16:48:44
Writing library : libebml v1.3.1 + libmatroska v1.4.2
Attachements : cover.jpg
Video
ID : 1
Format : AVC
Format/Info : Advanced Video Codec
Format profile : High@L4.1
Format settings, CABAC : Yes
Format settings, ReFrames : 12 frames
Codec ID : V_MPEG4/ISO/AVC
Duration : 1h 23mn
Bit rate : 4 960 Kbps
Width : 1 280 pixels
Height : 544 pixels
Display aspect ratio : 2.35:1
Frame rate mode : Constant
Frame rate : 23.976 fps
Color space : YUV
Chroma subsampling : 4:2:0
Bit depth : 8 bits
Scan type : Progressive
Bits/(Pixel*Frame) : 0.297
Stream size : 2.89 GiB (81%)
Title : Une.Femme.Est.Une.Femme.1961.FRENCH.720p.BluRay.x264-FiDELiO
Writing library : x264 core 140 r2377M 1ca7bb9
Encoding settings : cabac=1 / ref=12 / deblock=1:0:0 / analyse=0x3:0x133 / me=umh / subme=10 / psy=1 / psy_rd=1.00:0.00 / mixed_ref=1 / me_range=24 / chroma_me=1 / trellis=2 / 8x8dct=1 / cqm=0 / deadzone=21,11 / fast_pskip=1 / chroma_qp_offset=-2 / threads=12 / lookahead_threads=2 / sliced_threads=0 / nr=0 / decimate=1 / interlaced=0 / bluray_compat=0 / constrained_intra=0 / bframes=8 / b_pyramid=2 / b_adapt=2 / b_bias=0 / direct=3 / weightb=1 / open_gop=0 / weightp=2 / keyint=250 / keyint_min=23 / scenecut=40 / intra_refresh=0 / rc_lookahead=60 / rc=2pass / mbtree=1 / bitrate=4960 / ratetol=1.0 / qcomp=0.60 / qpmin=0 / qpmax=69 / qpstep=4 / cplxblur=20.0 / qblur=0.5 / ip_ratio=1.40 / aq=1:1.00
Language : French
Default : Yes
Forced : No
Audio #1
ID : 2
Format : AC-3
Format/Info : Audio Coding 3
Mode extension : CM (complete main)
Format settings, Endianness : Big
Codec ID : A_AC3
Duration : 1h 23mn
Bit rate mode : Constant
Bit rate : 192 Kbps
Channel(s) : 1 channel
Channel positions : Front: C
Sampling rate : 48.0 KHz
Bit depth : 16 bits
Compression mode : Lossy
Stream size : 115 MiB (3%)
Title : MVO – ОРТ
Language : Russian
Default : Yes
Forced : No
Audio #2
ID : 3
Format : AC-3
Format/Info : Audio Coding 3
Mode extension : CM (complete main)
Format settings, Endianness : Big
Codec ID : A_AC3
Duration : 1h 23mn
Bit rate mode : Constant
Bit rate : 192 Kbps
Channel(s) : 1 channel
Channel positions : Front: C
Sampling rate : 48.0 KHz
Bit depth : 16 bits
Compression mode : Lossy
Stream size : 115 MiB (3%)
Title : MVO – Мастер Видео
Language : Russian
Default : No
Forced : No
Audio #3
ID : 4
Format : AC-3
Format/Info : Audio Coding 3
Mode extension : CM (complete main)
Format settings, Endianness : Big
Codec ID : A_AC3
Duration : 1h 23mn
Bit rate mode : Constant
Bit rate : 640 Kbps
Channel(s) : 2 channels
Channel positions : Front: L R
Sampling rate : 48.0 KHz
Bit depth : 16 bits
Compression mode : Lossy
Stream size : 384 MiB (11%)
Title : Original
Language : French
Default : No
Forced : No
Text #1
ID : 5
Format : UTF-8
Codec ID : S_TEXT/UTF8
Codec ID/Info : UTF-8 Plain Text
Title : forced
Language : Russian
Default : Yes
Forced : Yes
Text #2
ID : 6
Format : UTF-8
Codec ID : S_TEXT/UTF8
Codec ID/Info : UTF-8 Plain Text
Language : Russian
Default : No
Forced : No
Text #3
ID : 7
Format : UTF-8
Codec ID : S_TEXT/UTF8
Codec ID/Info : UTF-8 Plain Text
Title : Criterion
Language : English
Default : No
Forced : No
Text #4
ID : 8
Format : UTF-8
Codec ID : S_TEXT/UTF8
Codec ID/Info : UTF-8 Plain Text
Title : StudioCanal
Language : English
Default : No
Forced : No
Text #5
ID : 9
Format : PGS
Codec ID : S_HDMV/PGS
Codec ID/Info : The same subtitle format used on BDs/HD-DVDs
Language : Japanese
Default : No
Forced : No
Menu
00:00:00.000 : en:Chapter 01
00:02:17.554 : en:Chapter 02
00:05:29.787 : en:Chapter 03
00:11:51.711 : en:Chapter 04
00:15:53.619 : en:Chapter 05
00:31:43.735 : en:Chapter 06
00:44:11.273 : en:Chapter 07
00:48:59.561 : en:Chapter 08
00:53:49.809 : en:Chapter 09
00:55:46.551 : en:Chapter 10
01:03:32.642 : en:Chapter 11
01:08:40.783 : en:Chapter 12
01:12:55.913 : en:Chapter 13
01:18:22.823 : en:Chapter 14
01:23:50.150 : en:Chapter 15



Показать сообщения:    

Текущее время: 07-Дек 15:26

Часовой пояс: UTC + 3


Вы не можете начинать темы
Вы не можете отвечать на сообщения
Вы не можете редактировать свои сообщения
Вы не можете удалять свои сообщения
Вы не можете голосовать в опросах
Вы не можете прикреплять файлы к сообщениям
Вы не можете скачивать файлы