Альфавиль / Alphaville, une étrange aventure de Lemmy Caution (Жан-Люк Годар / Jean-Luc Godard) [1965 г., Франция, Италия, драма, фантастика, BDRemux 1080p] 2x MVO (Film Prestige) + Original Fre + Sub (Rus, Eng, Jap, Chi)


 

[Цитировать]

Альфавиль / Alphaville, une étrange aventure de Lemmy Caution- Год выпуска: 1965
Страна: Франция, Италия
Жанр: драма, фантастика
Продолжительность: 01:39:38
Перевод 1: Профессиональный (многоголосый закадровый) Film Prestige
Перевод 2: Профессиональный (многоголосый закадровый)
Оригинальная аудиодорожка: Французская
Cубтитры: Русские (R5), английские (StudioCanal), японские, китайские-Режиссер: Жан-Люк Годар / Jean-Luc Godard
В ролях: Эдди Константин, Анна Карина, Аким Тамирофф, Жан-Луи Комолли, Криста Лэнг, Жан-Пьер Лео, Ласло Сабо, Хауард Вернон-Описание:
Альфавиль - тоталитарное общество, находящееся в миллионах световых лет от нашей планеты и управляемое электронным Альфа-мозгом. Создал его сбежавший с Земли профессор Носферату, скрывающийся здесь под именем фон Браун.
На Земле опасаются инопланетного вторжения, поэтому частный детектив Лемми Кошен получает задание - вернуть назад или убить профессора. Прибыв на место, Лемми влюбляется в его дочь Наташу...-За Film Prestige спасибо bm11.
| IMDb | Сэмпл-Качество: BDRemux 1080p (Alphaville 1965 BluRay 1080p AVC LPCM 2.0-DIY-Anitafayer)
Контейнер: MKV
Видео: AVC, 1920x1080 (1.33:1), 23.976 fps, 27787 kbps
Аудио 1: Русский AC3 2.0, 48 kHz, 192 kbps — Film Prestige
Аудио 2: Русский AC3 2.0, 48 kHz, 192 kbps — MVO #2
Аудио 3: Французский FLAC 2.0, 48 kHz, 248 kbps
Формат субтитров: softsub (SRT)

Скриншоты


MI

General
Unique ID : 192408621335283000036575166988983420615 (0x90C08D732E9AF10FB18EF8299DF346C7)
Complete name : Alphaville.1965.1080p.BDRemux.mkv
Format : Matroska
Format version : Version 2
File size : 19.8 GiB
Duration : 1h 39mn
Overall bit rate mode : Variable
Overall bit rate : 28.5 Mbps
Movie name : Alphaville / Альфавиль (1965) – RuTracker
Encoded date : UTC 2015-07-25 13:48:27
Writing application : mkvmerge v7.5.0 ('Glass Culture') 64bit built on Jan 4 2015 16:48:44
Writing library : libebml v1.3.1 + libmatroska v1.4.2
Attachements : cover.jpg
Video
ID : 1
Format : AVC
Format/Info : Advanced Video Codec
Format profile : High@L4.1
Format settings, CABAC : Yes
Format settings, ReFrames : 3 frames
Codec ID : V_MPEG4/ISO/AVC
Duration : 1h 39mn
Bit rate mode : Variable
Maximum bit rate : 38.0 Mbps
Width : 1 920 pixels
Height : 1 080 pixels
Display aspect ratio : 16:9
Frame rate mode : Constant
Frame rate : 23.976 fps
Standard : NTSC
Color space : YUV
Chroma subsampling : 4:2:0
Bit depth : 8 bits
Scan type : Progressive
Title : Alphaville 1965 JPN BluRay 1080p AVC LPCM 2.0-DIY-Anitafayer
Language : French
Default : Yes
Forced : No
Color primaries : BT.709
Transfer characteristics : BT.709
Matrix coefficients : BT.709
Color range : Limited
Audio #1
ID : 2
Format : AC-3
Format/Info : Audio Coding 3
Mode extension : CM (complete main)
Format settings, Endianness : Big
Codec ID : A_AC3
Duration : 1h 39mn
Bit rate mode : Constant
Bit rate : 192 Kbps
Channel(s) : 2 channels
Channel positions : Front: L R
Sampling rate : 48.0 KHz
Bit depth : 16 bits
Compression mode : Lossy
Stream size : 137 MiB (1%)
Title : MVO – Film Prestige
Language : Russian
Default : Yes
Forced : No
Audio #2
ID : 3
Format : AC-3
Format/Info : Audio Coding 3
Mode extension : CM (complete main)
Format settings, Endianness : Big
Codec ID : A_AC3
Duration : 1h 39mn
Bit rate mode : Constant
Bit rate : 192 Kbps
Channel(s) : 2 channels
Channel positions : Front: L R
Sampling rate : 48.0 KHz
Bit depth : 16 bits
Compression mode : Lossy
Stream size : 137 MiB (1%)
Title : MVO
Language : Russian
Default : No
Forced : No
Audio #3
ID : 4
Format : FLAC
Format/Info : Free Lossless Audio Codec
Codec ID : A_FLAC
Duration : 1h 39mn
Bit rate mode : Variable
Channel(s) : 2 channels
Sampling rate : 48.0 KHz
Bit depth : 16 bits
Title : Original
Writing library : libFLAC 1.3.1 (UTC 2014-11-25)
Language : French
Default : No
Forced : No
Text #1
ID : 5
Format : UTF-8
Codec ID : S_TEXT/UTF8
Codec ID/Info : UTF-8 Plain Text
Title : Film Prestige
Language : Russian
Default : No
Forced : No
Text #2
ID : 6
Format : UTF-8
Codec ID : S_TEXT/UTF8
Codec ID/Info : UTF-8 Plain Text
Title : StudioCanal
Language : English
Default : No
Forced : No
Text #3
ID : 7
Format : PGS
Muxing mode : zlib
Codec ID : S_HDMV/PGS
Codec ID/Info : The same subtitle format used on BDs/HD-DVDs
Language : Japanese
Default : No
Forced : No
Text #4
ID : 8
Format : PGS
Muxing mode : zlib
Codec ID : S_HDMV/PGS
Codec ID/Info : The same subtitle format used on BDs/HD-DVDs
Title : 简体中文字幕
Language : Chinese
Default : No
Forced : No
Text #5
ID : 9
Format : PGS
Muxing mode : zlib
Codec ID : S_HDMV/PGS
Codec ID/Info : The same subtitle format used on BDs/HD-DVDs
Title : 繁体中文字幕
Language : Chinese
Default : No
Forced : No
Menu
00:00:00.000 : ru:01. Начальные титры
00:00:29.653 : ru:02. Агент из внешнего мира
00:02:57.462 : ru:03. Соблазнительница, класс третий
00:08:56.847 : ru:04. Наташа
00:14:25.912 : ru:05. Глупые вопросы
00:19:26.450 : ru:06. Не слышу музыку
00:25:37.138 : ru:07. Слова умирающего
00:29:53.133 : ru:08. Учение Альфа-60
00:38:51.065 : ru:09. Смертельное купание красавиц
00:45:57.181 : ru:10. Любовь и деньги
00:50:27.899 : ru:11. Профессоры Экель и Жекель
00:55:46.537 : ru:12. Гарантия
01:01:29.032 : ru:13. Совесть
01:09:47.634 : ru:14. Воспоминания о Бродвее
01:14:30.739 : ru:15. Что такое любовь?
01:18:36.120 : ru:16. Мужчина и чашка кофе
01:24:02.911 : ru:17. Репортер и мститель
01:29:55.958 : ru:18. Побег
01:32:51.334 : ru:19. Спасение принцессы



Показать сообщения:    

Текущее время: 07-Дек 00:54

Часовой пояс: UTC + 3


Вы не можете начинать темы
Вы не можете отвечать на сообщения
Вы не можете редактировать свои сообщения
Вы не можете удалять свои сообщения
Вы не можете голосовать в опросах
Вы не можете прикреплять файлы к сообщениям
Вы не можете скачивать файлы