Омар / Omar (Хани Абу-Ассад / Hany Abu-Assad) [2013, Палестина, мелодрама, криминал, драма, BDRip 1080p] VO + Sub Rus, Eng + Original Ara


 

[Цитировать]

Омар / Omar
Страна: Палестина
Жанр: мелодрама/криминальная драма
Год выпуска: 2013
Продолжительность: 01:38:48
Перевод: Одноголосый закадровый
Cубтитры: русские, английские
Оригинальная аудиодорожка: арабская
Режиссер: Хани Абу-Ассад/Hany Abu-Assad
В ролях: Адам Бакри, Лим Лубани, Эссам Абу Абед, Самер Бишарат, Валид Зуэйтер, Ияд Хурани, Муса Хабииб Аллах, Дораид Лиддави, Ади Краем, Фоад Абед-Эйхади
Описание: История о том, как влюбленный палестинец по имени Омар взбирается на израильский разделительный барьер, бросая вызов армии оккупантов. И все это ради встречи с его возлюбленной Надией, которая живет по другую сторону стены. Уклоняясь от израильских пуль, чтобы хоть взглянуть на свою любимую, Омар проходит путь от обычного пекаря до активного борца за свободу.
Доп. информация: Релиз не с собственного диска, а с другого файлообменника
О фильме: http://www.kinopoisk.ru/film/760000/
Сэмпл: https://yadi.sk/i/-5mQqyk6hyYw5
Качество видео: BDRip 1080p
Формат видео: MKV
Видео: MPEG4, 1920*804, 24 fps, 10700 Кбит/с
Аудио: AC3, 48000 Гц, 448 Кбит/с, dolby digital 5.1 (русская дорожка)
Аудио 2: AC3, 48000 Гц, 640 Кбит/с, dolby digital 5.1 (оригинальная дорожка)
Формат субтитров: softsub (SRT)

MediaInfo

Общее
Уникальный идентификатор : 222438529573386297653099162010383393334 (0xA7581A3CB984707DA01248CE3FD1A236)
Полное имя : K:\Хани абу-Ассад\Омар.mkv
Формат : Matroska
Версия формата : Version 4 / Version 2
Размер файла : 8,31 Гбайт
Продолжительность : 1 ч. 38 м.
Общий поток : 12,0 Мбит/сек
Название фильма : Release Group СПАМ
Дата кодирования : UTC 2015-01-16 21:33:50
Программа кодирования : mkvmerge v7.5.0 ('Glass Culture') 64bit built on Jan 4 2015 16:48:44
Библиотека кодирования : libebml v1.3.1 libmatroska v1.4.2
Видео
Идентификатор : 1
Формат : AVC
Формат/Информация : Advanced Video Codec
Профиль формата : High@L4.1
Параметр CABAC формата : Да
Параметр ReFrames формата : 5 кадров
Идентификатор кодека : V_MPEG4/ISO/AVC
Продолжительность : 1 ч. 38 м.
Битрейт : 10,7 Мбит/сек
Ширина : 1920 пикселей
Высота : 804 пикселя
Соотношение сторон : 2,40:1
Режим частоты кадров : Постоянный
Частота кадров : 23,976 кадра/сек
Цветовое пространство : YUV
Субдискретизация насыщенности : 4:2:0
Битовая глубина : 8 бит
Тип развёртки : Прогрессивная
Бит/(Пиксели*Кадры) : 0.290
Размер потока : 7,40 Гбайт (89%)
Заголовок : Release Group СПАМ
Библиотека кодирования : x264 core 142 r2479 dd79a61
Настройки программы : cabac=1 / ref=5 / deblock=1:-3:-3 / analyse=0x3:0x113 / me=umh / subme=11 / psy=1 / psy_rd=1.05:0.00 / mixed_ref=1 / me_range=32 / chroma_me=1 / trellis=2 / 8x8dct=1 / cqm=0 / deadzone=21,11 / fast_pskip=0 / chroma_qp_offset=-2 / threads=6 / lookahead_threads=1 / sliced_threads=0 / nr=0 / decimate=0 / interlaced=0 / bluray_compat=0 / constrained_intra=0 / bframes=9 / b_pyramid=2 / b_adapt=2 / b_bias=0 / direct=3 / weightb=1 / open_gop=0 / weightp=2 / keyint=250 / keyint_min=24 / scenecut=40 / intra_refresh=0 / rc=crf / mbtree=0 / crf=15.0 / qcomp=0.65 / qpmin=0 / qpmax=69 / qpstep=4 / ip_ratio=1.40 / pb_ratio=1.30 / aq=1:0.90
Default : Да
Forced : Нет
Аудио #1
Идентификатор : 2
Формат : AC-3
Формат/Информация : Audio Coding 3
Расширение режима : CM (complete main)
Параметр Endianness формата : Big
Идентификатор кодека : A_AC3
Продолжительность : 1 ч. 38 м.
Вид битрейта : Постоянный
Битрейт : 448 Кбит/сек
Каналы : 6 каналов
Расположение каналов : Front: L C R, Side: L R, LFE
Частота : 48,0 КГц
Битовая глубина : 16 бит
Метод сжатия : С потерями
Размер потока : 317 Мбайт (4%)
Заголовок : Павел Морозов
Язык : Russian
Default : Да
Forced : Да
Аудио #2
Идентификатор : 3
Формат : AC-3
Формат/Информация : Audio Coding 3
Расширение режима : CM (complete main)
Параметр Endianness формата : Big
Идентификатор кодека : A_AC3
Продолжительность : 1 ч. 38 м.
Вид битрейта : Постоянный
Битрейт : 640 Кбит/сек
Каналы : 6 каналов
Расположение каналов : Front: L C R, Side: L R, LFE
Частота : 48,0 КГц
Битовая глубина : 16 бит
Метод сжатия : С потерями
Размер потока : 452 Мбайт (5%)
Язык : Arabic
Default : Нет
Forced : Нет
Текст #1
Идентификатор : 4
Формат : UTF-8
Идентификатор кодека : S_TEXT/UTF8
Идентификатор кодека/Информация : UTF-8 Plain Text
Язык : Russian
Default : Да
Forced : Да
Текст #2
Идентификатор : 5
Формат : UTF-8
Идентификатор кодека : S_TEXT/UTF8
Идентификатор кодека/Информация : UTF-8 Plain Text
Заголовок : М. Коновалов
Язык : Russian
Default : Нет
Forced : Нет
Текст #3
Идентификатор : 6
Формат : UTF-8
Идентификатор кодека : S_TEXT/UTF8
Идентификатор кодека/Информация : UTF-8 Plain Text
Язык : English
Default : Нет
Forced : Нет
Меню
00:00:00.000 : en:Chapter 1
00:12:31.376 : en:Chapter 2
00:20:52.418 : en:Chapter 3
00:33:08.778 : en:Chapter 4
00:44:54.483 : en:Chapter 5
00:56:17.249 : en:Chapter 6
01:05:12.617 : en:Chapter 7
01:14:54.990 : en:Chapter 8
01:24:43.453 : en:Chapter 9
01:36:02.757 : en:Credits

Скриншоты









Показать сообщения:    

Текущее время: 04-Дек 15:13

Часовой пояс: UTC + 3


Вы не можете начинать темы
Вы не можете отвечать на сообщения
Вы не можете редактировать свои сообщения
Вы не можете удалять свои сообщения
Вы не можете голосовать в опросах
Вы не можете прикреплять файлы к сообщениям
Вы не можете скачивать файлы