Олдбой / Старина / Oldeuboi / Oldboy / Old boy (Чан Ук Пак / Chan-wook Park) [2003, Южная Корея, триллер, драма, детектив, BDRemux 1080p] Dub + DVO + AVO + Eng + Sub Rus, Eng + Original Kor


 

[Цитировать]

Олдбой / Старина / Oldeuboi / Oldboy / Old boy
Страна: Южная Корея
Студия: Egg Films, Show East
Жанр: Триллер, драма, детектив
Год выпуска: 2003
Продолжительность: 01:59:56
Перевод: Профессиональный (дублированный) Cinema Prestige
Перевод 2: Профессиональный (двухголосый закадровый) Tycoon
Перевод 3: Авторский (одноголосый закадровый) Визгунов
Оригинальная аудиодорожка: Korean
Cубтитры: Русские (Cinema Prestige), русские (Tycoon), русские комментарии режиссёра (Cinema Prestige), русские комментарии режиссёра и главного оператора (Cinema Prestige), русские комментарии режиссёра и актёров) (Cinema Prestige), английские (Tycoon)
Режиссер: Чан Ук Пак / Chan-wook Park
В ролях: Мин Сик Чхве, Чжи Тхэ Ю, Кан Хе Чжон, Да-Хэн Джи, Дал-су Ох, Бйонг-Ок Ким, Сенг-Шин Ли, Джин-Сео Юн, Дае-Ён Ли, Кван Рок О, Тай-Кинг О, Ён Сок Ю, Ил-Хан Оо, Су-Хен Ким, Сенг-Джин Ли, Су-кен Юн, Минг-Шин Парк, Да-Хэн Чи, Йи Йонг
Описание: 1988 год. Солнце садилось, забирая за собой день. Обыкновенный и ничем не примечательный бизнесмен по имени О Дэ Су в день трёхлетия своей дочери по пути домой напивается, начинает хулиганить и закономерно попадает в полицейский участок. В воздухе пахло весной. Из участка его под своё поручительство забирает друг детства по имени Чжу Хван. Пока Чжу Хван звонит домой жене незадачливого пьяницы, О Дэ Су пропадает. Неизвестные похищают его и помещают в камеру частной тюрьмы. Камера состоит из комнаты, санузла, в ней есть телевизор, но нет окон…
Сэмпл: http://rusfolder.com/43964670
Тип релиза: BDRemux 1080p
Контейнер: MKV
Видео: MPEG-4 AVC, 1920x1080, 16:9, 23.976 fps, 29999 kbps
Аудио: AC-3, 384 kbps, 5.1ch, 48 kHz, Cinema Prestige
Аудио 2: AC-3, 448 kbps, 5.1ch, 48 kHz, Tycoon
Аудио 3: AC-3, 2 ch, 192 kbps, 48 kHz, Визгунов
Аудио 4: AC-3, 640 kbps, 5.1ch, 48 kHz, Eng
Аудио 5: DTS-HD 2049 kbps 7.1 ch 48 kHz 16-bit (DTS Core: 5.1 / 48 kHz / 768 kbps / 16-bit) Korean
Аудио 6: AC-3, 224 kbps, 2 ch, 48 kHz, Korean (Комментарии режиссера)
Аудио 7: AC-3, 224 kbps, 2 ch, 48 kHz, Korean (Комментарии режиссера и главного оператора)
Аудио 8: AC-3, 224 kbps, 2 ch, 48 kHz, Korean (Комментарии режиссера и актеров)
Формат субтитров: softsub (SRT)

MediaInfo

General
Unique ID : 326839791615354492508486200678440809710 (0xF5E30DDE03D4D90459685794A7F4B4EE)
Complete name : OldBoy.2003.Bluray.AVC.Remux.mkv
Format : Matroska
Format version : Version 4 / Version 2
File size : 28.8 GiB
Duration : 1h 59mn
Overall bit rate mode : Variable
Overall bit rate : 34.4 Mbps
Encoded date : UTC 2015-07-17 02:48:45
Writing application : mkvmerge v6.7.0 ('Back to the Ground') 64bit built on Jan 9 2014 18:03:17
Writing library : libebml v1.3.0 + libmatroska v1.4.1
Video
ID : 1
Format : AVC
Format/Info : Advanced Video Codec
Format profile : High@L4.1
Format settings, CABAC : Yes
Format settings, ReFrames : 4 frames
Codec ID : V_MPEG4/ISO/AVC
Duration : 1h 59mn
Bit rate mode : Variable
Maximum bit rate : 37.0 Mbps
Width : 1 920 pixels
Height : 1 080 pixels
Display aspect ratio : 16:9
Frame rate mode : Constant
Frame rate : 23.976 fps
Standard : NTSC
Color space : YUV
Chroma subsampling : 4:2:0
Bit depth : 8 bits
Scan type : Progressive
Title : Режиссер: Пак Чхан Ук / Chan-wook Park
Language : Korean
Default : Yes
Forced : No
Color primaries : BT.709
Transfer characteristics : BT.709
Matrix coefficients : BT.709
Audio #1
ID : 2
Format : AC-3
Format/Info : Audio Coding 3
Mode extension : CM (complete main)
Format settings, Endianness : Big
Codec ID : A_AC3
Duration : 1h 59mn
Bit rate mode : Constant
Bit rate : 384 Kbps
Channel(s) : 6 channels
Channel positions : Front: L C R, Side: L R, LFE
Sampling rate : 48.0 KHz
Bit depth : 16 bits
Compression mode : Lossy
Stream size : 329 MiB (1%)
Title : AC-3, 384 kbps, 5.1ch, 48 kHz (Дубляж, Cinema Prestige)
Language : Russian
Default : Yes
Forced : No
Audio #2
ID : 3
Format : AC-3
Format/Info : Audio Coding 3
Mode extension : CM (complete main)
Format settings, Endianness : Big
Codec ID : A_AC3
Duration : 1h 59mn
Bit rate mode : Constant
Bit rate : 448 Kbps
Channel(s) : 6 channels
Channel positions : Front: L C R, Side: L R, LFE
Sampling rate : 48.0 KHz
Bit depth : 16 bits
Compression mode : Lossy
Stream size : 384 MiB (1%)
Title : AC-3, 448 kbps, 5.1ch, 48 kHz (Двухголосый закадровый, Tycoon-Studio)
Language : Russian
Default : No
Forced : No
Audio #3
ID : 4
Format : AC-3
Format/Info : Audio Coding 3
Mode extension : CM (complete main)
Format settings, Endianness : Big
Codec ID : A_AC3
Duration : 1h 59mn
Bit rate mode : Constant
Bit rate : 192 Kbps
Channel(s) : 2 channels
Channel positions : Front: L R
Sampling rate : 48.0 KHz
Bit depth : 16 bits
Compression mode : Lossy
Stream size : 165 MiB (1%)
Title : AC-3, 2 ch, 192 kbps, 48 kHz (Визгунов)
Language : Russian
Default : No
Forced : No
Audio #4
ID : 5
Format : AC-3
Format/Info : Audio Coding 3
Mode extension : CM (complete main)
Format settings, Endianness : Big
Codec ID : A_AC3
Duration : 1h 59mn
Bit rate mode : Constant
Bit rate : 640 Kbps
Channel(s) : 6 channels
Channel positions : Front: L C R, Side: L R, LFE
Sampling rate : 48.0 KHz
Bit depth : 16 bits
Compression mode : Lossy
Stream size : 549 MiB (2%)
Title : AC-3, 640 kbps, 5.1ch, 48 kHz (English)
Language : English
Default : No
Forced : No
Audio #5
ID : 6
Format : DTS
Format/Info : Digital Theater Systems
Format profile : MA / Core
Mode : 16
Format settings, Endianness : Big
Codec ID : A_DTS
Duration : 1h 59mn
Bit rate mode : Variable
Bit rate : Unknown / 768 Kbps
Channel(s) : 8 channels / 6 channels
Channel positions : Front: L C R, Side: L R, Back: L R, LFE / Front: L C R, Side: L R, LFE
Sampling rate : 48.0 KHz
Bit depth : 16 bits
Compression mode : Lossless / Lossy
Title : DTS-HD 2049 kbps 7.1 ch 48 kHz 16-bit (DTS Core: 7.1 / 48 kHz / 768 kbps / 16-bit)
Language : Korean
Default : No
Forced : No
Audio #6
ID : 7
Format : AC-3
Format/Info : Audio Coding 3
Mode extension : CM (complete main)
Format settings, Endianness : Big
Codec ID : A_AC3
Duration : 1h 59mn
Bit rate mode : Constant
Bit rate : 224 Kbps
Channel(s) : 2 channels
Channel positions : Front: L R
Sampling rate : 48.0 KHz
Bit depth : 16 bits
Compression mode : Lossy
Stream size : 192 MiB (1%)
Title : AC-3, 224 kbps, 2 ch, 48 kHz (Комментарии режиссера)
Language : Korean
Default : No
Forced : No
Audio #7
ID : 8
Format : AC-3
Format/Info : Audio Coding 3
Mode extension : CM (complete main)
Format settings, Endianness : Big
Codec ID : A_AC3
Duration : 1h 59mn
Bit rate mode : Constant
Bit rate : 224 Kbps
Channel(s) : 2 channels
Channel positions : Front: L R
Sampling rate : 48.0 KHz
Bit depth : 16 bits
Compression mode : Lossy
Stream size : 192 MiB (1%)
Title : AC-3, 224 kbps, 2 ch, 48 kHz (Комментарии режиссера и главного оператора)
Language : Korean
Default : No
Forced : No
Audio #8
ID : 9
Format : AC-3
Format/Info : Audio Coding 3
Mode extension : CM (complete main)
Format settings, Endianness : Big
Codec ID : A_AC3
Duration : 1h 59mn
Bit rate mode : Constant
Bit rate : 224 Kbps
Channel(s) : 2 channels
Channel positions : Front: L R
Sampling rate : 48.0 KHz
Bit depth : 16 bits
Compression mode : Lossy
Stream size : 192 MiB (1%)
Title : AC-3, 224 kbps, 2 ch, 48 kHz (Комментарии режиссера и актеров)
Language : Korean
Default : No
Forced : No
Text #1
ID : 10
Format : UTF-8
Codec ID : S_TEXT/UTF8
Codec ID/Info : UTF-8 Plain Text
Title : RUS.PREMIER
Language : Russian
Default : No
Forced : No
Text #2
ID : 11
Format : UTF-8
Codec ID : S_TEXT/UTF8
Codec ID/Info : UTF-8 Plain Text
Title : RUS.TYCOON
Language : Russian
Default : No
Forced : No
Text #3
ID : 12
Format : UTF-8
Codec ID : S_TEXT/UTF8
Codec ID/Info : UTF-8 Plain Text
Title : RUS (Комментарии режиссёра)
Language : Russian
Default : No
Forced : No
Text #4
ID : 13
Format : UTF-8
Codec ID : S_TEXT/UTF8
Codec ID/Info : UTF-8 Plain Text
Title : RUS (Комментарии режиссёра и главного оператора)
Language : Russian
Default : No
Forced : No
Text #5
ID : 14
Format : UTF-8
Codec ID : S_TEXT/UTF8
Codec ID/Info : UTF-8 Plain Text
Title : RUS (Комментарии режиссёра и актёров)
Language : Russian
Default : No
Forced : No
Text #6
ID : 15
Format : UTF-8
Codec ID : S_TEXT/UTF8
Codec ID/Info : UTF-8 Plain Text
Title : ENG.TYCOON
Language : English
Default : No
Forced : No



Показать сообщения:    

Текущее время: 11-Дек 16:50

Часовой пояс: UTC + 3


Вы не можете начинать темы
Вы не можете отвечать на сообщения
Вы не можете редактировать свои сообщения
Вы не можете удалять свои сообщения
Вы не можете голосовать в опросах
Вы не можете прикреплять файлы к сообщениям
Вы не можете скачивать файлы