Карандиру / Carandiru (Эктор Бабенко / Hector Babenco) [2003, Бразилия, Аргентина, Италия, драма, криминал, WEB-DL 720p] MVO + AVO + Sub Eng + Original Por


 

[Цитировать]

Карандиру / Carandiru
-Страна: Бразилия, Аргентина, Италия
Жанр: драма
Год выпуска: 2003
Продолжительность: 02:25:22-Перевод 1: Профессиональный (многоголосый закадровый) СТС
Перевод 2: Авторский (одноголосый закадровый) Сергей Кузнецов
Cубтитры: английские
Оригинальная аудиодорожка: португальский-Режиссер: Эктор Бабенко / Hector Babenco-В ролях: Луис Карлос Васконцелос, Милтон Гонсалвис, Иван Де Альмейда, Айлтон Граса, Мария Луиза Мендонича, Айда Лейнер, Родриго Санторо, Джеро Камило, Лазаро Рамос, Кайу Блат-Описание:
Фильм основан на реальных событиях
Если бы Сатана искал местечко для филиала ада на Земле, ему не пришлось бы долго возиться. Наверняка им стала бы тюрьма Карандиру, самое жуткое исправительное заведение в Бразилии.
Фантастическая антисанитария, отвратительная еда, охранники-садисты и нарушения всех мыслимых прав человека сделали ее печально знаменитой задолго до того, как однажды в 1992 году доведенные до отчаяния заключенные Карандиру подняли мятеж.
Полиция с огромным трудом потопила восстание в крови, убив 111 человек. В итоге, из-за разразившегося международного скандала властям пришлось разрушить тюрьму до основания как символ национального позора.-Сэмпл: Скачать-Тип релиза: WEB-DL 720p
Контейнер: MKV-Видео: 1280x678 (1.888); 3 928 Kbps; 23.976 fps; 0.189 bpp
Аудио 1: Russian; AC3; 48.0 KHz; 2ch; 192 Kbps MVO
Аудио 2: Russian; AC3; 48.0 KHz; 2ch; 192 Kbps AVO
Аудио 3: Portuguese; AC3; 48.0 KHz; 6ch; 448 Kbps DVD
Аудио 4: Portuguese; AAC; 48.0 KHz; 2ch; 160 Kbps

MediaInfo

Format : Matroska
Format version : Version 4 / Version 2
File size : 5.04 GiB
Duration : 2h 25mn
Overall bit rate : 4 965 Kbps
Encoded date : UTC 2015-07-17 10:13:15
Writing application : mkvmerge v8.1.0 ('Psychedelic Postcard') 64bit
Writing library : libebml v1.3.1 + libmatroska v1.4.2
Attachements : poster.jpg
DURATION : 02:25:26.048000000
NUMBER_OF_FRAMES : 272689
NUMBER_OF_BYTES : 488658688
_STATISTICS_WRITING_APP : mkvmerge v8.1.0 ('Psychedelic Postcard') 64bit
_STATISTICS_WRITING_DATE_UTC : 2015-07-17 10:13:15
_STATISTICS_TAGS : BPS DURATION NUMBER_OF_FRAMES NUMBER_OF_BYTES
Video
ID : 1
Format : AVC
Format/Info : Advanced Video Codec
Format profile : High@L3.1
Format settings, CABAC : No
Format settings, ReFrames : 2 frames
Codec ID : V_MPEG4/ISO/AVC
Duration : 2h 25mn
Width : 1 280 pixels
Height : 678 pixels
Display aspect ratio : 1.888
Frame rate mode : Constant
Frame rate : 23.976 fps
Color space : YUV
Chroma subsampling : 4:2:0
Bit depth : 8 bits
Scan type : Progressive
Language : English
Default : Yes
Forced : No
Color primaries : BT.709
Transfer characteristics : BT.709
Matrix coefficients : BT.709
Audio #1
ID : 2
Format : AC-3
Format/Info : Audio Coding 3
Mode extension : CM (complete main)
Format settings, Endianness : Big
Codec ID : A_AC3
Duration : 2h 25mn
Bit rate mode : Constant
Bit rate : 192 Kbps
Channel(s) : 2 channels
Channel positions : Front: L R
Sampling rate : 48.0 KHz
Bit depth : 16 bits
Compression mode : Lossy
Stream size : 200 MiB (4%)
Title : MVO СТС
Language : Russian
Default : Yes
Forced : No
Audio #2
ID : 3
Format : AC-3
Format/Info : Audio Coding 3
Mode extension : CM (complete main)
Format settings, Endianness : Big
Codec ID : A_AC3
Duration : 2h 25mn
Bit rate mode : Constant
Bit rate : 192 Kbps
Channel(s) : 2 channels
Channel positions : Front: L R
Sampling rate : 48.0 KHz
Bit depth : 16 bits
Compression mode : Lossy
Stream size : 200 MiB (4%)
Title : AVO Сергей Кузнецов
Language : Russian
Default : No
Forced : No
Audio #3
ID : 4
Format : AC-3
Format/Info : Audio Coding 3
Mode extension : CM (complete main)
Format settings, Endianness : Big
Codec ID : A_AC3
Duration : 2h 25mn
Bit rate mode : Constant
Bit rate : 448 Kbps
Channel(s) : 6 channels
Channel positions : Front: L C R, Side: L R, LFE
Sampling rate : 48.0 KHz
Bit depth : 16 bits
Compression mode : Lossy
Stream size : 466 MiB (9%)
Title : AC3 5.1
Language : Portuguese
Default : No
Forced : No
Audio #4
ID : 5
Format : AAC
Format/Info : Advanced Audio Codec
Format profile : LC
Codec ID : A_AAC
Duration : 2h 25mn
Channel(s) : 2 channels
Channel positions : Front: L R
Sampling rate : 48.0 KHz
Compression mode : Lossy
Language : Portuguese
Default : No
Forced : No
Text
ID : 6
Format : UTF-8
Codec ID : S_TEXT/UTF8
Codec ID/Info : UTF-8 Plain Text
Language : English
Default : No
Forced : No
Menu
00:00:00.000 : en:1
00:09:45.000 : en:2
00:16:03.000 : en:3
00:23:51.000 : en:4
00:33:45.000 : en:5
00:40:13.000 : en:6
00:47:39.000 : en:7
00:55:09.000 : en:8
01:02:03.000 : en:9
01:10:02.000 : en:10
01:17:18.000 : en:11
01:21:50.000 : en:12
01:31:06.000 : en:13
01:40:09.000 : en:14
01:51:01.000 : en:15
02:03:00.000 : en:16

Скриншоты




Показать сообщения:    

Текущее время: 05-Дек 13:33

Часовой пояс: UTC + 3


Вы не можете начинать темы
Вы не можете отвечать на сообщения
Вы не можете редактировать свои сообщения
Вы не можете удалять свои сообщения
Вы не можете голосовать в опросах
Вы не можете прикреплять файлы к сообщениям
Вы не можете скачивать файлы