Вот твоя жизнь / Här har du ditt liv (Ян Труэль / Jan Troell) [1966, Швеция, драма, BDRip 720p] [Criterion Collection] Sub (Rus, Eng) + Original Swe


 

[Цитировать]

Вот твоя жизнь / Här har du ditt liv
Страна: Швеция
Жанр: драма
Год выпуска: 1966
Продолжительность: 02:49:10
Перевод: Субтитры
Cубтитры: русские (Kacablanka), английские
Оригинальная аудиодорожка: шведский-Режиссер: Ян Труэль / Jan Troell
В ролях: Эдди Аксберг, Гудрун Брост, Ула Аксельсон, Бо Вальстрём, Рик Аксберг, Хольгер Лёвенадлер, Горан Линдберг, Таге Сьёгрен, Таге Йонсон, Аллан Эдвалль
Описание: Юный Олаф уходит из родительского дома, чтобы самостоятельно попробовать устроить свою судьбу. Для начала он присоединяется к лесорубам и вскоре начинает понимать, как нелегка трудовая доля. Со временем к нему приходит желание учиться и понимание, что жизнь можно изменить…
IMDb || КиноПоиск-Тип релиза: BDRip 720p [mfcorrea]
Контейнер: MKV
Видео: x264/AVC, 1200x720 at 23.976 fps, 6500 kbps
Аудио: Swedish: 48 kHz, AC3, 1.0 ch, 640 kbps
Формат субтитров: softsub (SRT)
Сэмпл

MediaInfo

General
Unique ID : 225758542236292403682729478854579337293 (0xA9D7837FD69EEBB888E4F411A8A4384D)
Complete name : Här.Har.Du.Ditt.Liv.1966.Criterion.720p. rutracker.mkv
Format : Matroska
Format version : Version 2
File size : 8.44 GiB
Duration : 2h 49mn
Overall bit rate : 7 142 Kbps
Movie name : Release for RuTracker
Writing application : mkvmerge v5.0.1 ('Es ist Sommer') built on Nov 6 2011 16:23:40
Writing library : libebml v1.2.2 + libmatroska v1.3.0
Video
ID : 1
Format : AVC
Format/Info : Advanced Video Codec
Format profile : High@L4.1
Format settings, CABAC : Yes
Format settings, ReFrames : 9 frames
Codec ID : V_MPEG4/ISO/AVC
Duration : 2h 49mn
Bit rate : 6 500 Kbps
Width : 1 200 pixels
Height : 720 pixels
Display aspect ratio : 1.667
Frame rate mode : Constant
Frame rate : 23.976 fps
Color space : YUV
Chroma subsampling : 4:2:0
Bit depth : 8 bits
Scan type : Progressive
Bits/(Pixel*Frame) : 0.314
Stream size : 7.51 GiB (89%)
Title : Här.Har.Du.Ditt.Liv.1966.Criterion.720p. rutracker
Writing library : x264 core 142 r2479 dd79a61
Encoding settings : cabac=1 / ref=9 / deblock=1:-2:-2 / analyse=0x3:0x133 / me=umh / subme=9 / psy=1 / psy_rd=1.00:0.00 / mixed_ref=1 / me_range=28 / chroma_me=1 / trellis=2 / 8x8dct=1 / cqm=0 / deadzone=21,11 / fast_pskip=0 / chroma_qp_offset=-2 / threads=18 / lookahead_threads=3 / sliced_threads=0 / nr=0 / decimate=1 / interlaced=0 / bluray_compat=0 / constrained_intra=0 / bframes=9 / b_pyramid=2 / b_adapt=2 / b_bias=0 / direct=3 / weightb=1 / open_gop=0 / weightp=2 / keyint=240 / keyint_min=24 / scenecut=40 / intra_refresh=0 / rc_lookahead=50 / rc=2pass / mbtree=1 / bitrate=6500 / ratetol=1.0 / qcomp=0.60 / qpmin=0 / qpmax=69 / qpstep=4 / cplxblur=20.0 / qblur=0.5 / vbv_maxrate=62500 / vbv_bufsize=78125 / nal_hrd=none / filler=0 / ip_ratio=1.40 / aq=1:1.00
Language : Swedish
Default : Yes
Forced : No
Color primaries : BT.709
Transfer characteristics : BT.709
Matrix coefficients : BT.709
Audio
ID : 2
Format : AC-3
Format/Info : Audio Coding 3
Mode extension : CM (complete main)
Format settings, Endianness : Big
Codec ID : A_AC3
Duration : 2h 49mn
Bit rate mode : Constant
Bit rate : 640 Kbps
Channel(s) : 1 channel
Channel positions : Front: C
Sampling rate : 48.0 KHz
Bit depth : 16 bits
Compression mode : Lossy
Stream size : 774 MiB (9%)
Language : Swedish
Default : Yes
Forced : No
Text #1
ID : 3
Format : UTF-8
Codec ID : S_TEXT/UTF8
Codec ID/Info : UTF-8 Plain Text
Language : Russian
Default : Yes
Forced : No
Text #2
ID : 4
Format : UTF-8
Codec ID : S_TEXT/UTF8
Codec ID/Info : UTF-8 Plain Text
Language : English
Default : No
Forced : No
Menu
00:00:00.000 : en:Chapter 1
00:07:34.329 : en:Chapter 2
00:21:55.231 : en:Chapter 3
00:31:08.492 : en:Chapter 4
00:37:55.231 : en:Chapter 5
00:44:07.895 : en:Chapter 6
00:50:15.930 : en:Chapter 7
01:01:59.257 : en:Chapter 8
01:11:54.060 : en:Chapter 9
01:19:44.530 : en:Chapter 10
01:29:13.473 : en:Chapter 11
01:32:47.479 : en:Chapter 12
01:37:47.111 : en:Chapter 13
01:55:40.642 : en:Chapter 14
02:02:25.964 : en:Chapter 15
02:07:08.579 : en:Chapter 16
02:19:40.163 : en:Chapter 17
02:23:44.616 : en:Chapter 18
02:29:46.895 : en:Chapter 19
02:37:31.901 : en:Chapter 20
02:40:47.388 : en:Chapter 21

Скриншоты




Показать сообщения:    

Текущее время: 04-Дек 09:10

Часовой пояс: UTC + 3


Вы не можете начинать темы
Вы не можете отвечать на сообщения
Вы не можете редактировать свои сообщения
Вы не можете удалять свои сообщения
Вы не можете голосовать в опросах
Вы не можете прикреплять файлы к сообщениям
Вы не можете скачивать файлы