Мамочка / Mommy (Ксавье Долан / Xavier Dolan) [2014, Канада, драма, BDRip 1080p] Dub (iTunes) + Sub Fre, Eng + Original Fre


 

[Цитировать]

Мамочка / Mommy
Страна: Канада
Студия: Metafilms, Société de Développement des Entreprises Culturelles (SODEC), Sons of Manual
Жанр: Драма
Год выпуска: 2014
Продолжительность: 02:18:27
Перевод: Профессиональный (дублированный) iTunes
Cубтитры: Fre, Eng
Оригинальная аудиодорожка: французский
Режиссер: Ксавье Долан / Xavier Dolan
В ролях: Энн Дорваль, Антуан-Оливье Пилон, Сюзанн Клеман, Патрик Уард, Александр Гойетт, Мишель Литюак, Изабель Нелисс, Пьер-Ив Кардинал, Вивиан Паскаль, Натали Амель-Руа
Описание: Яркая и взбалмошная вдова Диана забирает из интерната сына-подростка и полна решимости начать новую жизнь. Со Стивом они бы жили душа в душу, но вспышки гнева импульсивного сына то и дело подрывают шаткое равновесие в семье. На подмогу приходит скромная заикающаяся соседка Кайла, и в доме на время воцаряется идиллия, но как долго это продлится?

Тип релиза: BDRip 1080p
Контейнер: MKV
Видео: MPEG-4 AVC, 12.5 Mбит/с, 1920x1080, 23,976 fps
Аудио: Rus, AC3, 384 kb/s (6 ch), 48 kHz
Аудио 2: Fre, DTS, 1510 kb/s (6 ch), 48 kHz
Формат субтитров: softsub (SRT)

MediaInfo

Format : Matroska
Format version : Version 4 / Version 2
File size : 14.2 GiB
Duration : 2h 18mn
Overall bit rate : 14.7 Mbps
Movie name : Мамочка. (Tonik)
Encoded date : UTC 2015-03-27 04:11:55
Writing application : mkvmerge v7.1.0 ('Good Love') 64bit built on Jul 27 2014 13:06:55
Writing library : libebml v1.3.0 + libmatroska v1.4.1
_STATISTICS_WRITING_APP : mkvmerge v7.1.0 ('Good Love') 64bit built on Jul 27 2014 13:06:55
_STATISTICS_WRITING_DATE_UTC : 2015-03-27 04:11:55
_STATISTICS_TAGS : BPS DURATION NUMBER_OF_FRAMES NUMBER_OF_BYTES
DURATION : 02:18:21.088000000
NUMBER_OF_FRAMES : 778227
NUMBER_OF_BYTES : 1565792724
Video
ID : 1
Format : AVC
Format/Info : Advanced Video Codec
Format profile : High@L4.1
Format settings, CABAC : Yes
Format settings, ReFrames : 4 frames
Codec ID : V_MPEG4/ISO/AVC
Duration : 2h 18mn
Bit rate : 12.5 Mbps
Width : 1 920 pixels
Height : 1 080 pixels
Display aspect ratio : 16:9
Frame rate mode : Constant
Frame rate : 23.976 fps
Color space : YUV
Chroma subsampling : 4:2:0
Bit depth : 8 bits
Scan type : Progressive
Bits/(Pixel*Frame) : 0.251
Stream size : 12.1 GiB (85%)
Writing library : x264 core 146 r2538kMod 121396c
Encoding settings : cabac=1 / ref=4 / deblock=1:-3:-3 / analyse=0x3:0x133 / me=umh / subme=10 / psy=1 / fade_compensate=0.00 / psy_rd=1.08:0.00 / mixed_ref=1 / me_range=24 / chroma_me=1 / trellis=2 / 8x8dct=1 / cqm=0 / deadzone=21,11 / fast_pskip=1 / chroma_qp_offset=-2 / threads=24 / lookahead_threads=6 / sliced_threads=0 / nr=0 / decimate=1 / interlaced=0 / bluray_compat=0 / constrained_intra=0 / fgo=0 / bframes=11 / b_pyramid=2 / b_adapt=2 / b_bias=0 / direct=3 / weightb=1 / open_gop=0 / weightp=2 / keyint=250 / keyint_min=23 / scenecut=40 / intra_refresh=0 / rc=crf / mbtree=0 / crf=18.8000 / qcomp=0.65 / qpmin=0 / qpmax=69 / qpstep=4 / ip_ratio=1.30 / pb_ratio=1.20 / aq=3:0.68
Language : English
Default : Yes
Forced : No
Matrix coefficients : BT.709
DURATION : 02:18:27.299000000
NUMBER_OF_FRAMES : 199176
NUMBER_OF_BYTES : 13252404942
_STATISTICS_WRITING_APP : mkvmerge v7.1.0 ('Good Love') 64bit built on Jul 27 2014 13:06:55
_STATISTICS_WRITING_DATE_UTC : 2015-03-27 04:11:55
_STATISTICS_TAGS : BPS DURATION NUMBER_OF_FRAMES NUMBER_OF_BYTES
Audio #1
ID : 2
Format : AC-3
Format/Info : Audio Coding 3
Mode extension : CM (complete main)
Format settings, Endianness : Big
Codec ID : A_AC3
Duration : 2h 18mn
Bit rate mode : Constant
Bit rate : 384 Kbps
Channel(s) : 6 channels
Channel positions : Front: L C R, Side: L R, LFE
Sampling rate : 48.0 KHz
Bit depth : 16 bits
Compression mode : Lossy
Stream size : 380 MiB (3%)
Language : Russian
Default : Yes
Forced : No
Audio #2
ID : 3
Format : DTS
Format/Info : Digital Theater Systems
Mode : 16
Format settings, Endianness : Big
Codec ID : A_DTS
Duration : 2h 18mn
Bit rate mode : Constant
Bit rate : 1 509 Kbps
Channel(s) : 6 channels
Channel positions : Front: L C R, Side: L R, LFE
Sampling rate : 48.0 KHz
Bit depth : 16 bits
Compression mode : Lossy
Stream size : 1.46 GiB (10%)
Language : French
Default : No
Forced : No
Text #1
ID : 4
Format : UTF-8
Codec ID : S_TEXT/UTF8
Codec ID/Info : UTF-8 Plain Text
Language : French
Default : No
Forced : No
Text #2
ID : 5
Format : UTF-8
Codec ID : S_TEXT/UTF8
Codec ID/Info : UTF-8 Plain Text
Language : English
Default : No
Forced : No
Menu
00:00:00.000 : en:00:00:00.000
00:02:48.585 : en:00:02:48.585
00:09:27.984 : en:00:09:27.984
00:16:09.260 : en:00:16:09.260
00:22:55.291 : en:00:22:55.291
00:28:28.081 : en:00:28:28.081
00:30:56.188 : en:00:30:56.188
00:40:24.881 : en:00:40:24.881
00:51:45.394 : en:00:51:45.394
01:00:50.313 : en:01:00:50.313
01:06:28.693 : en:01:06:28.693
01:15:09.630 : en:01:15:09.630
01:20:47.760 : en:01:20:47.760
01:26:29.393 : en:01:26:29.393
01:39:03.855 : en:01:39:03.855
01:44:22.715 : en:01:44:22.715
01:53:24.923 : en:01:53:24.923
02:00:13.873 : en:02:00:13.873
02:04:48.564 : en:02:04:48.564
02:13:21.660 : en:02:13:21.660

Скриншоты




Показать сообщения:    

Текущее время: 04-Дек 06:55

Часовой пояс: UTC + 3


Вы не можете начинать темы
Вы не можете отвечать на сообщения
Вы не можете редактировать свои сообщения
Вы не можете удалять свои сообщения
Вы не можете голосовать в опросах
Вы не можете прикреплять файлы к сообщениям
Вы не можете скачивать файлы