Валери и неделя чудес / Valerie a tyden divu (Яромил Иреш /Jaromil Jires) [1970, Чехословакия, сюрреализм, ужасы, фэнтези, BDRip 720p] [Criterion Collection] AVO (А.Алексеев) + Sub Rus, Eng + Original Cze


 

[Цитировать]

Валери и неделя чудес / Valerie a tyden divu
Страна: Чехословакия
Жанр: сюрреализм, ужасы, фэнтези
Год выпуска: 1970
Продолжительность: 01:17:00
Перевод: Авторский (одноголосый закадровый) А.Алексеев
Cубтитры: русские, английские
Оригинальная аудиодорожка: чешский
Режиссер: Яромил Иреш /Jaromil Jires
В ролях: Ярослава Шаллерова, Хелена Анизова, Петр Коприва, Юри Примек, Ян Клусак, Карел Энджел
Описание: Фильм ужасов про 13-летнюю девочку Валерию, вступающую во взрослую жизнь и переживающую первые любовные увлечения. Фильм находится на грани реальности и сна, сказки, сомнамбулической лирики и ночных кошмаров, пронизанных сексуальными откровениями подсознания.
Доп. информация:


Тип релиза: BDRip 720p| sample
Контейнер: MKV
Видео: H.264/AVC, 988x720, 1.37:1, 23.976fps, 6994 Kbps
Аудио #1 RUS: AC3 2.0, 48 kHz, 192 kbps
Аудио #2 CZE: FLAC 1.0, 48 kHz, ~277 kbps
Аудио #3: AC3 2.0, 48 kHz, 192 kbps | The Valerie Project Score
Формат субтитров: softsub (SRT)

x264

x264 [info]: frame I:608 Avg QP:18.33 size:106972
x264 [info]: frame P:19910 Avg QP:19.61 size: 59834
x264 [info]: frame B:90266 Avg QP:21.07 size: 30834
x264 [info]: consecutive B-frames: 1.0% 0.9% 2.2% 12.2% 11.2% 53.2% 6.0% 2.9% 2.4% 2.1% 1.6% 2.8% 1.6%

MI

General
Unique ID                                : 170176680847521212970627627442078572690 (0x8006D628039DB093BFA37B442EC96092)
Complete name                            : Valerie a tuden dyvu 1970 720p Bluray FLAC x264 rus cze.mkv
Format                                   : Matroska
Format version                           : Version 4 / Version 2
File size                                : 4.12 GiB
Duration                                 : 1h 17mn
Overall bit rate mode                    : Variable
Overall bit rate                         : 7 664 Kbps
Movie name                               : Valerie a týden divu (1970)
Encoded date                             : UTC 2015-07-05 12:52:44
Writing application                      : mkvmerge v8.1.0 ('Psychedelic Postcard') 64bit
Writing library                          : libebml v1.3.1 + libmatroska v1.4.2
Video
ID                                       : 1
Format                                   : AVC
Format/Info                              : Advanced Video Codec
Format profile                           : High@L4.1
Format settings, CABAC                   : Yes
Format settings, ReFrames                : 11 frames
Codec ID                                 : V_MPEG4/ISO/AVC
Duration                                 : 1h 17mn
Width                                    : 988 pixels
Height                                   : 720 pixels
Display aspect ratio                     : 1.372
Frame rate mode                          : Constant
Frame rate                               : 23.976 fps
Color space                              : YUV
Chroma subsampling                       : 4:2:0
Bit depth                                : 8 bits
Scan type                                : Progressive
Writing library                          : x264 core 146 r2538kMod 121396c
Encoding settings                        : cabac=1 / ref=11 / deblock=1:-3:-3 / analyse=0x3:0x133 / me=umh / subme=10 / psy=1 / fade_compensate=0.00 / psy_rd=1.10:0.00 / mixed_ref=1 / me_range=32 / chroma_me=1 / trellis=2 / 8x8dct=1 / cqm=0 / deadzone=21,11 / fast_pskip=1 / chroma_qp_offset=-2 / threads=6 / lookahead_threads=1 / sliced_threads=0 / nr=0 / decimate=0 / interlaced=0 / bluray_compat=0 / constrained_intra=0 / fgo=0 / bframes=12 / b_pyramid=2 / b_adapt=2 / b_bias=0 / direct=3 / weightb=1 / open_gop=0 / weightp=2 / keyint=250 / keyint_min=23 / scenecut=40 / intra_refresh=0 / rc_lookahead=60 / rc=crf / mbtree=0 / crf=18.3000 / qcomp=0.70 / qpmin=0 / qpmax=69 / qpstep=4 / vbv_maxrate=50000 / vbv_bufsize=62500 / crf_max=0.0 / nal_hrd=none / filler=0 / ip_ratio=1.30 / pb_ratio=1.20 / aq=2:0.60
Language                                 : English
Default                                  : Yes
Forced                                   : No
Audio #1
ID                                       : 2
Format                                   : AC-3
Format/Info                              : Audio Coding 3
Mode extension                           : CM (complete main)
Format settings, Endianness              : Big
Codec ID                                 : A_AC3
Duration                                 : 1h 17mn
Bit rate mode                            : Constant
Bit rate                                 : 192 Kbps
Channel(s)                               : 2 channels
Channel positions                        : Front: L R
Sampling rate                            : 48.0 KHz
Bit depth                                : 16 bits
Compression mode                         : Lossy
Stream size                              : 106 MiB (3%)
Title                                    : VO [А.Алексеев]
Language                                 : Russian
Default                                  : Yes
Forced                                   : No
Audio #2
ID                                       : 3
Format                                   : FLAC
Format/Info                              : Free Lossless Audio Codec
Codec ID                                 : A_FLAC
Duration                                 : 1h 17mn
Bit rate mode                            : Variable
Channel(s)                               : 1 channel
Sampling rate                            : 48.0 KHz
Bit depth                                : 16 bits
Writing library                          : libFLAC 1.2.1 (UTC 2007-09-17)
Language                                 : Czech
Default                                  : No
Forced                                   : No
Audio #3
ID                                       : 4
Format                                   : AC-3
Format/Info                              : Audio Coding 3
Mode extension                           : CM (complete main)
Format settings, Endianness              : Big
Codec ID                                 : A_AC3
Duration                                 : 1h 17mn
Bit rate mode                            : Constant
Bit rate                                 : 192 Kbps
Channel(s)                               : 2 channels
Channel positions                        : Front: L R
Sampling rate                            : 48.0 KHz
Bit depth                                : 16 bits
Compression mode                         : Lossy
Stream size                              : 106 MiB (3%)
Title                                    : The Valerie Project Score
Language                                 : Czech
Default                                  : No
Forced                                   : No
Text #1
ID                                       : 5
Format                                   : UTF-8
Codec ID                                 : S_TEXT/UTF8
Codec ID/Info                            : UTF-8 Plain Text
Language                                 : Russian
Default                                  : No
Forced                                   : No
Text #2
ID                                       : 6
Format                                   : UTF-8
Codec ID                                 : S_TEXT/UTF8
Codec ID/Info                            : UTF-8 Plain Text
Language                                 : English
Default                                  : No
Forced                                   : No
Text #3
ID                                       : 7
Format                                   : PGS
Muxing mode                              : zlib
Codec ID                                 : S_HDMV/PGS
Codec ID/Info                            : The same subtitle format used on BDs/HD-DVDs
Language                                 : English
Default                                  : No
Forced                                   : No
Menu
00:00:00.000                             : en:Innocence
00:02:55.008                             : en:Pearls and petals
00:07:15.852                             : en:No longer a child
00:11:00.493                             : en:Special sermon
00:16:58.100                             : en:Lashings
00:22:05.324                             : en:Striking a bargain
00:26:04.021                             : en:Among cannibals
00:31:40.649                             : en:After midnight
00:34:46.876                             : en:Discoveries
00:38:08.786                             : en:New guest
00:41:38.621                             : en:Captive
00:44:52.732                             : en:Brother and sister
00:46:10.226                             : en:Salvation in blood
00:51:36.302                             : en:Disgraced
00:54:36.440                             : en:Under a spell
00:56:49.031                             : en:Witch
00:59:50.378                             : en:Transformation
01:03:28.430                             : en:Secrets revealed
01:09:39.592                             : en:Mother and father
01:11:44.509                             : en:Sweet dreams

Скриншоты




Показать сообщения:    

Текущее время: 09-Дек 10:45

Часовой пояс: UTC + 3


Вы не можете начинать темы
Вы не можете отвечать на сообщения
Вы не можете редактировать свои сообщения
Вы не можете удалять свои сообщения
Вы не можете голосовать в опросах
Вы не можете прикреплять файлы к сообщениям
Вы не можете скачивать файлы