Послеполуденный отдых фавна / Faunovo velmi pozdní odpoledne / The Very Late Afternoon of a Faun (Вера Хитилова / Vera Chytilová) [1983, Чехословакия, трагикомедия, HDTVRip 720p] VO (Машинский) + Sub Eng + Original Cze


 

[Цитировать]

Послеполуденный отдых фавна / Faunovo velmi pozdní odpoledne / The Very Late Afternoon of a Faun
Страна: Чехословакия
Жанр: трагикомедия
Год выпуска: 1983
Продолжительность: 01:35:36
Перевод: Одноголосый закадровый (Машинский)
Cубтитры: английские
Оригинальная аудиодорожка: чешский
Режиссер: Вера Хитилова / Vera Chytilová
В ролях: Леос Сухаржипа, Либузе Поспишилова, Власта Спишнерова, Иржи Халек, Иван Выскочил, Франтишек Коварик, Алена Амброва
Описание: Режиссер рисует нам комичный портрет Дон-Жуана средних лет, не утратившего резвость, галантность и стремление нравиться молоденьким женщинам. История о неутомимом поиске любви героем-сластолюбцем, об играх и искусстве обольщения мужчин высмеивает и некоторую развязность женщин, причем под внешним - страх людей упустить жизнь...
Доп. информация:


Тип релиза: HDTVRip 720p | DON | sample
Контейнер: MKV
Видео: H.264/AVC, 954x720, 4:3, 25.00fps, 6178 Kbps
Аудио #1 RUS: DD 2.0, 48 kHz, 224 kbps
Аудио #2 CZE: MP2 2.0, 48 kHz, 192 kbps
Формат субтитров: softsub (SRT)

MediaInfo

General
Unique ID                                : 210078080893288256070164198338195151392 (0x9E0B9110F81AADD0BDD985AD922CDA20)
Complete name                            : Faunovo.velmi.pozdni.odpoledne.1983.720p.HDTV.x264.rus.cze.mkv
Format                                   : Matroska
Format version                           : Version 4 / Version 2
File size                                : 4.49 GiB
Duration                                 : 1h 35mn
Overall bit rate                         : 6 728 Kbps
Movie name                               : Faunovo velmi pozdní odpoledne (1983)
Encoded date                             : UTC 2015-06-21 06:42:16
Writing application                      : mkvmerge v7.6.0 ('Garden of Dreams') 64bit built on Feb  8 2015 13:04:34
Writing library                          : libebml v1.3.1 + libmatroska v1.4.2
DURATION                                 : 01:35:36.480000000
NUMBER_OF_FRAMES                         : 179265
NUMBER_OF_BYTES                          : 160621440
_STATISTICS_WRITING_APP                  : mkvmerge v7.6.0 ('Garden of Dreams') 64bit built on Feb  8 2015 13:04:34
_STATISTICS_WRITING_DATE_UTC             : 2015-06-21 06:42:16
_STATISTICS_TAGS                         : BPS DURATION NUMBER_OF_FRAMES NUMBER_OF_BYTES
Video
ID                                       : 1
Format                                   : AVC
Format/Info                              : Advanced Video Codec
Format profile                           : High@L4.1
Format settings, CABAC                   : Yes
Format settings, ReFrames                : 12 frames
Codec ID                                 : V_MPEG4/ISO/AVC
Duration                                 : 1h 35mn
Bit rate                                 : 6 178 Kbps
Width                                    : 954 pixels
Height                                   : 720 pixels
Display aspect ratio                     : 4:3
Frame rate mode                          : Constant
Frame rate                               : 25.000 fps
Color space                              : YUV
Chroma subsampling                       : 4:2:0
Bit depth                                : 8 bits
Scan type                                : Progressive
Bits/(Pixel*Frame)                       : 0.360
Stream size                              : 4.13 GiB (92%)
Writing library                          : x264 core 146 r0+2586 e393126 t_mod_Custom [8-bit@all X86_64]
Encoding settings                        : cabac=1 / ref=12 / deblock=1:-3:-3 / analyse=0x3:0x133 / me=umh / subme=10 / psy=1 / fade_compensate=0.00 / psy_rd=1.05:0.00 / mixed_ref=1 / me_range=32 / chroma_me=1 / trellis=2 / 8x8dct=1 / cqm=0 / deadzone=21,11 / fast_pskip=0 / chroma_qp_offset=-2 / threads=12 / lookahead_threads=2 / sliced_threads=0 / nr=0 / decimate=0 / interlaced=0 / bluray_compat=0 / constrained_intra=0 / fgo=0 / bframes=8 / b_pyramid=2 / b_adapt=2 / b_bias=0 / direct=3 / weightb=1 / open_gop=0 / weightp=2 / keyint=250 / keyint_min=25 / scenecut=40 / intra_refresh=0 / rc_lookahead=60 / rc=crf / mbtree=0 / crf=16.5000 / qcomp=0.60 / qpmin=0:0:0 / qpmax=69:69:69 / qpstep=4 / vbv_maxrate=62500 / vbv_bufsize=78125 / crf_max=0.0 / nal_hrd=none / filler=0 / ip_ratio=1.40 / pb_ratio=1.30 / aq=3:0.80 / aq-sensitivity=10.00 / aq-factor=1.00:1.00:1.00 / aq2=0 / aq3=0
Language                                 : Czech
Default                                  : Yes
Forced                                   : No
Audio #1
ID                                       : 2
Format                                   : AC-3
Format/Info                              : Audio Coding 3
Mode extension                           : CM (complete main)
Format settings, Endianness              : Big
Codec ID                                 : A_AC3
Duration                                 : 1h 35mn
Bit rate mode                            : Constant
Bit rate                                 : 224 Kbps
Channel(s)                               : 2 channels
Channel positions                        : Front: L R
Sampling rate                            : 48.0 KHz
Bit depth                                : 16 bits
Compression mode                         : Lossy
Stream size                              : 153 MiB (3%)
Title                                    : VO [Машинский]
Language                                 : Russian
Default                                  : Yes
Forced                                   : No
Audio #2
ID                                       : 3
Format                                   : MPEG Audio
Format version                           : Version 1
Format profile                           : Layer 2
Codec ID                                 : A_MPEG/L2
Codec ID/Hint                            : MP2
Duration                                 : 1h 35mn
Bit rate mode                            : Constant
Bit rate                                 : 192 Kbps
Channel(s)                               : 2 channels
Sampling rate                            : 48.0 KHz
Compression mode                         : Lossy
Stream size                              : 131 MiB (3%)
Language                                 : Czech
Default                                  : No
Forced                                   : No
Text
ID                                       : 4
Format                                   : UTF-8
Codec ID                                 : S_TEXT/UTF8
Codec ID/Info                            : UTF-8 Plain Text
Language                                 : English
Default                                  : No
Forced                                   : No

Скриншоты




Показать сообщения:    

Текущее время: 07-Дек 21:25

Часовой пояс: UTC + 3


Вы не можете начинать темы
Вы не можете отвечать на сообщения
Вы не можете редактировать свои сообщения
Вы не можете удалять свои сообщения
Вы не можете голосовать в опросах
Вы не можете прикреплять файлы к сообщениям
Вы не можете скачивать файлы