Пожары / Incendies (Дени Вильнёв / Denis Villeneuve) [2010, Франция, Канада, триллер, детектив, драма, BDRip 1080p] MVO + Sub Rus, Eng + Original Fre


 

[Цитировать]

Пожары / Incendies
Страна: Канада, Франция
Жанр: детектив, триллер, драма, военный
Год выпуска: 2010
Продолжительность: 2:10:27
Перевод: Профессиональный (многоголосый закадровый) R5
Cубтитры: русские, английские
Оригинальная аудиодорожка: французский-Режиссер: Дени Вильнёв / Denis Villeneuve
В ролях: Лубна Азабаль, Мелисса Дезормо-Полен, Максим Годетт, Реми Жирар, Аллен Олтмэн, Мохамед Майд, Набил Савалха, Байа Белаль-Описание: Жанна и Симон — близнецы, дети Навал Марван, много лет назад покинувшей свою неназванную родину на Ближнем Востоке из-за происходившей там войны (подразумевается Ливан с его гражданской войной). После смерти матери близнецы должны выполнить её последнюю волю — разыскать своего отца, считавшегося погибшим, и брата, о существовании которого они ничего не подозревали. Симон не желает заниматься этим делом, так что Жанна одна отправляется на родину матери, чтобы разыскать свидетельства о её прошлом. Постепенно ей открывается суровая правда о Навал Марван.-
Сэмпл
Тип релиза: BDRip 1080p [HDClub]
Контейнер: MKV-Видео: 1920x1036p, 23.976 fps, x264 ~13.7 Mbps
Аудио: Русский: 48 kHz, AC3, 3/2 (L,C,R,l,r) + LFE ch, ~448.00 kbps avg | Многоголосый закадровый, R5
Аудио 2: Французский: 48 kHz/24-bit, DTS 5.1, ~1536.00 kbps avg
Аудио 3: Английский: 48 kHz, AC3, 2/0 (L,R) ch, ~ 192.00 kbps avg | Комментарии

MediaInfo

Общее
Уникальный идентификатор : 183095991893362325011629069234024091353 (0x89BF015E8473A32DB09DF47D2D8E0ED9)
Полное имя : D:\Video\Pojary.2010.x264.BDRip.(1080p)-HDClub.mkv
Формат : Matroska
Версия формата : Version 2
Размер файла : 14,4 Гбайт
Продолжительность : 2 ч. 10 м.
Общий поток : 15,8 Мбит/сек
Название фильма : Incendies.2010- Release for HDCLUB
Дата кодирования : UTC 2012-03-07 00:28:50
Программа кодирования : mkvmerge v4.4.0 ('Die Wiederkehr') built on Oct 31 2010 21:52:48
Библиотека кодирования : libebml v1.0.0 + libmatroska v1.0.0
Видео
Идентификатор : 1
Формат : AVC
Формат/Информация : Advanced Video Codec
Профиль формата : High@L4.1
Параметр CABAC формата : Да
Параметр ReFrames формата : 4 кадра
Идентификатор кодека : V_MPEG4/ISO/AVC
Продолжительность : 2 ч. 10 м.
Битрейт : 13,7 Мбит/сек
Ширина : 1920 пикселей
Высота : 1036 пикселей
Соотношение сторон : 1,85:1
Режим частоты кадров : Постоянный
Частота кадров : 23,976 кадра/сек
Цветовое пространство : YUV
Субдискретизация насыщенности : 4:2:0
Битовая глубина : 8 бит
Тип развёртки : Прогрессивная
Бит/(Пиксели*Кадры) : 0.286
Размер потока : 12,2 Гбайт (84%)
Заголовок : Release for HDCLUB
Библиотека кодирования : x264 core 116 r2074 2641b9e
Настройки программы : cabac=1 / ref=4 / deblock=1:-3:-3 / analyse=0x3:0x113 / me=umh / subme=11 / psy=1 / psy_rd=1.00:0.05 / mixed_ref=1 / me_range=48 / chroma_me=1 / trellis=2 / 8x8dct=1 / cqm=0 / deadzone=21,11 / fast_pskip=0 / chroma_qp_offset=-2 / threads=12 / sliced_threads=0 / nr=0 / decimate=1 / interlaced=0 / bluray_compat=0 / constrained_intra=0 / bframes=6 / b_pyramid=2 / b_adapt=2 / b_bias=0 / direct=3 / weightb=1 / open_gop=0 / weightp=2 / keyint=250 / keyint_min=23 / scenecut=40 / intra_refresh=0 / rc_lookahead=60 / rc=2pass / mbtree=1 / bitrate=13657 / ratetol=1.0 / qcomp=0.70 / qpmin=0 / qpmax=69 / qpstep=4 / cplxblur=20.0 / qblur=0.5 / vbv_maxrate=40000 / vbv_bufsize=30000 / nal_hrd=none / ip_ratio=1.40 / aq=2:0.90
Язык : English
Default : Нет
Forced : Нет
Аудио #1
Идентификатор : 2
Формат : AC-3
Формат/Информация : Audio Coding 3
Расширение режима : CM (complete main)
Параметр Endianness формата : Big
Идентификатор кодека : A_AC3
Продолжительность : 2 ч. 10 м.
Вид битрейта : Постоянный
Битрейт : 448 Кбит/сек
Каналы : 6 каналов
Расположение каналов : Front: L C R, Side: L R, LFE
Частота : 48,0 КГц
Битовая глубина : 16 бит
Метод сжатия : С потерями
Размер потока : 418 Мбайт (3%)
Заголовок : AC3@5.1 448 kbps Многоголосый закадровый R5
Язык : Russian
Default : Да
Forced : Да
Аудио #2
Идентификатор : 3
Формат : DTS
Формат/Информация : Digital Theater Systems
Режим : 16
Параметр Endianness формата : Big
Идентификатор кодека : A_DTS
Продолжительность : 2 ч. 10 м.
Вид битрейта : Постоянный
Битрейт : 1509 Кбит/сек
Каналы : 6 каналов
Расположение каналов : Front: L C R, Side: L R, LFE
Частота : 48,0 КГц
Битовая глубина : 24 бит
Метод сжатия : С потерями
Задержка видео : 11 мс.
Размер потока : 1,38 Гбайт (10%)
Заголовок : DTS@5.1 1536 kbps Оригинал
Язык : French
Default : Нет
Forced : Нет
Аудио #3
Идентификатор : 4
Формат : AC-3
Формат/Информация : Audio Coding 3
Профиль формата : Dolby Digital
Расширение режима : CM (complete main)
Параметр Endianness формата : Big
Идентификатор кодека : A_AC3
Продолжительность : 2 ч. 10 м.
Вид битрейта : Постоянный
Битрейт : 192 Кбит/сек
Каналы : 2 канала
Расположение каналов : Front: L R
Частота : 48,0 КГц
Битовая глубина : 16 бит
Метод сжатия : С потерями
Размер потока : 179 Мбайт (1%)
Заголовок : AC3@2.0 192 kbps commentary
Язык : English
Default : Нет
Forced : Нет
Текст #1
Идентификатор : 5
Формат : UTF-8
Идентификатор кодека : S_TEXT/UTF8
Идентификатор кодека/Информация : UTF-8 Plain Text
Заголовок : Субтитры R5 (full)
Язык : Russian
Default : Нет
Forced : Нет
Текст #2
Идентификатор : 6
Формат : UTF-8
Идентификатор кодека : S_TEXT/UTF8
Идентификатор кодека/Информация : UTF-8 Plain Text
Заголовок : Субтитры (forced)
Язык : English
Default : Нет
Forced : Нет
Текст #3
Идентификатор : 7
Формат : UTF-8
Идентификатор кодека : S_TEXT/UTF8
Идентификатор кодека/Информация : UTF-8 Plain Text
Заголовок : Субтитры (full)
Язык : English
Default : Нет
Forced : Нет
Меню
00:00:00.000 : en:00:00:00.000
00:03:55.777 : en:00:03:55.777
00:11:47.081 : en:00:11:47.081
00:18:55.801 : en:00:18:55.801
00:27:43.537 : en:00:27:43.537
00:34:46.334 : en:00:34:46.334
00:45:44.367 : en:00:45:44.367
00:53:07.893 : en:00:53:07.893
01:00:17.030 : en:01:00:17.030
01:09:55.233 : en:01:09:55.233
01:16:29.043 : en:01:16:29.043
01:22:13.095 : en:01:22:13.095
01:33:51.376 : en:01:33:51.376
01:40:46.958 : en:01:40:46.958
01:46:55.492 : en:01:46:55.492
01:57:12.776 : en:01:57:12.776

Скриншоты




Показать сообщения:    

Текущее время: 03-Дек 12:34

Часовой пояс: UTC + 3


Вы не можете начинать темы
Вы не можете отвечать на сообщения
Вы не можете редактировать свои сообщения
Вы не можете удалять свои сообщения
Вы не можете голосовать в опросах
Вы не можете прикреплять файлы к сообщениям
Вы не можете скачивать файлы