Леоло / Leolo (Жан-Клод Лозон / Jean-Claude Lauzon) [1992, Франция, Канада, комедия, драма, WEB-DL 720p] VO + Original Fre + Sub (Rus, Eng)


 

[Цитировать]

Леоло / Léolo Страна: Франция, Канада
Жанр: Комедия, драма, артхаус
Год выпуска: 1992
Продолжительность: 01:47:21
Перевод: Одноголосый закадровый
Оригинальная аудиодорожка: Французский
Cубтитры: Русские, английские
Режиссёр: Жан-Клод Лозон / Jean-Claude Lauzon
В ролях: Максим Коллен / Maxime Collin, Жинетт Рено / Ginette Reno, Жюльен Гиомар / Julien Guiomar, Пьер Бурго / Pierre Bourgault, Гвидитта Дель Веккьо / Giuditta Del Vecchio, Андре Лашапель / Andree Lachapelle, Дени Аркан / Denys Arcand и другие
Описание:
Юный Леоло видит окружающий мир причудливым и жестоким, что заставляет его самого вести себя с родственниками и соседями порочно и преступно. Фантазии Леоло двойственны: отвратительны, исполнены висельного юмора, издевательски по отношению к тем, кого Леоло не любит (например, своего деда — вуаериста и развратника), но возвышены и романтичны в мечтах о юной соседке — девушке-итальянке Бьянке. В её честь подросток даже объявляет себя итальянцем, придумывая уморительно-скабрезную байку о том, как сперма сборщика помидоров из Италии попала в лоно матери Леоло, живущей в далеком Монреале...
Качество видео: WEB-DL 720p
Формат видео: MKV
Видео: AVC/H264, High@L3.1, 1280x688 (1,85:1), 23,976 fps, 4021 kbps, 0.186 bit/pixel
Аудио #1: Русский: AC3, 48 kHz, 16 bit, 2.0, 256 kbps
Аудио #2: Французский : DTS, 48 kHz, 16 bit, 5.1, 755 kbps
Субтитры: Русские, английские
Дополнительная о релизе:
Исходник: Léolo (1992) 720p WEB-DL AAC2.0 H264
Аудиодорожки и субтитры синхронизированы

MediaInfo

Формат : Matroska
Версия формата : Version 4 / Version 2
Размер файла : 3,78 Гбайт
Продолжительность : 1 ч. 47 м.
Общий поток : 5034 Кбит/сек
Дата кодирования : UTC 2015-06-02 00:32:35
Программа кодирования : mkvmerge v7.9.0 ('Birds') 64bit
Библиотека кодирования : libebml v1.3.1 + libmatroska v1.4.2
Видео
Идентификатор : 1
Формат : AVC
Формат/Информация : Advanced Video Codec
Профиль формата : High@L3.1
Параметр CABAC формата : Нет
Параметр ReFrames формата : 2 кадра
Идентификатор кодека : V_MPEG4/ISO/AVC
Продолжительность : 1 ч. 47 м.
Битрейт : 3923 Кбит/сек
Ширина : 1280 пикселей
Высота : 688 пикселей
Соотношение сторон : 1,85:1
Режим частоты кадров : Постоянный
Частота кадров : 23,976 кадра/сек
Цветовое пространство : YUV
Субдискретизация насыщенности : 4:2:0
Битовая глубина : 8 бит
Тип развёртки : Прогрессивная
Бит/(Пиксели*Кадры) : 0.186
Размер потока : 2,94 Гбайт (78%)
Заголовок : Леоло / Leolo (1992) WEB-DL 720p © andtwice release
Язык : French
Default : Да
Forced : Нет
Основные цвета : BT.709
Характеристики трансфера : BT.709
Коэффициенты матрицы : BT.709
Аудио #1
Идентификатор : 2
Формат : AC-3
Формат/Информация : Audio Coding 3
Расширение режима : CM (complete main)
Параметр Endianness формата : Big
Идентификатор кодека : A_AC3
Продолжительность : 1 ч. 47 м.
Вид битрейта : Постоянный
Битрейт : 256 Кбит/сек
Каналы : 2 канала
Расположение каналов : Front: L R
Частота : 48,0 КГц
Битовая глубина : 16 бит
Метод сжатия : С потерями
Размер потока : 197 Мбайт (5%)
Заголовок : AVO
Язык : Russian
Default : Да
Forced : Нет
Аудио #2
Идентификатор : 3
Формат : DTS
Формат/Информация : Digital Theater Systems
Режим : 16
Параметр Endianness формата : Big
Идентификатор кодека : A_DTS
Продолжительность : 1 ч. 47 м.
Вид битрейта : Постоянный
Битрейт : 755 Кбит/сек
Каналы : 6 каналов
Расположение каналов : Front: L C R, Side: L R, LFE
Частота : 48,0 КГц
Битовая глубина : 24 бит
Метод сжатия : С потерями
Размер потока : 579 Мбайт (15%)
Заголовок : Original
Язык : French
Default : Нет
Forced : Нет
Текст #1
Идентификатор : 4
Формат : UTF-8
Идентификатор кодека : S_TEXT/UTF8
Идентификатор кодека/Информация : UTF-8 Plain Text
Заголовок : Subs Rus
Язык : Russian
Default : Нет
Forced : Нет
Текст #2
Идентификатор : 5
Формат : UTF-8
Идентификатор кодека : S_TEXT/UTF8
Идентификатор кодека/Информация : UTF-8 Plain Text
Заголовок : Subs Eng
Язык : English
Default : Нет
Forced : Нет

Скриншоты

-



Показать сообщения:    

Текущее время: 05-Дек 03:29

Часовой пояс: UTC + 3


Вы не можете начинать темы
Вы не можете отвечать на сообщения
Вы не можете редактировать свои сообщения
Вы не можете удалять свои сообщения
Вы не можете голосовать в опросах
Вы не можете прикреплять файлы к сообщениям
Вы не можете скачивать файлы