Декалог / Dekalog / Фильм 1-2 (10) (Кшиштоф Кесьлёвский / Krzysztof Kieslowski) [1989-1990, Польша, ФРГ, драма, HDTV 1080i] MVO (Неоклассика) + DVO (Культура) + Original Pol + Sub (Rus, Eng)


 

[Цитировать]

Декалог / Dekalog Страна: Польша, Германия (ФРГ)
Жанр: Драма
Год выпуска: 1990
Продолжительность: 00:53:31 + 00:56:49
Перевод #1: Профессиональный многоголосый закадровый (Неоклассика)
Перевод #2: Профессиональный двухголосый закадровый (СВ-Дубль)
Оригинальная аудиодорожка: Польский
Cубтитры: Русские, английские
Режиссёр: Кшиштоф Кесьлёвский / Krzysztof Kieslowski
Описание:
Десять удивительных историй, где-то трагичных, где-то комичных, героями каждой из которых мог бы оказаться любой человек. Эти мини-рассказы созданы в совершенно разных жанрах, но при этом очень похожи друг на друга. Красной нитью проходит через каждую историю одна и та же мысль – что многие люди, стараясь разобраться со своими текущими проблемами, на самом деле давно потеряли настоящую цель и, по большому счёту, стоят на одном месте. Так происходит практически со всеми, однако иногда жизнь и какое-нибудь случайное событие способны дать им шанс увидеть правду и попытаться осуществить свои истинные мечты.
Описания и роли по сериям::

Фильм первый

В ролях: Хенрих Барановский / Henryk Baranowski, Майя Коморовска / Maja Komorowska, Войцех Клята / Wojciech Klata
Павел, десятилетний мальчик, и его отец Кшиштоф, университетский профессор, всё свое свободное время проводят за двумя домашними компьютерами. Иногда им кажется, что компьютеру можно доверить решение разных вопросов и задач. И они доверяют, забыв, что компьютер - это всего лишь машина...

Фильм второй

В ролях: Кристина Янда / Krystyna Janda, Александр Бардини / Aleksander Bardini, Ольгерд Лукашевич / Olgierd Lukaszewicz
Дорота, женщина средних лет, обращается к своему пожилому соседу, лечащему врачу её умирающего мужа, с необычным вопросом: есть ли у него шансы выжить? Выясняется, что она беременна от другого мужчины, которого тоже любит, но если её муж выздоровеет, Дорота сделает аборт - она не хочет ребёнка от другого мужчины при живом муже. Других же детей у неё нет, а в случае аборта шансов снова забеременеть у неё не будет. Доктор смущён такой постановкой вопроса: не от его рук, но от его воли зависит жизнь человека, а то и не одного...
Качество видео: HDTV 1080i
Формат видео: MKV
Видео: AVC/H264, High@L4.0, 1920x1080 (16:9), 25 fps, ~6000-7000 kbps, ~0.10 bit/pixel
Аудио #1: Русский многоголосый: AC3, 48 kHz, 16 bit, 2.0, 192 kbps | с релиза DVD Неоклассика
Аудио #2: Русский двухголосый : AC3, 48 kHz, 16 bit, 2.0, 192 kbps | СВ-Дубль, для ТРК "Культура"
Аудио #3: Польский оригинал: AC3, 48 kHz, 16 bit, 5.1, 384 kbps
Субтитры: Русские, английские
Дополнительная о релизе:
Исходник: HDTV рипы с TVP-HD (от ...)
Аудиодорожки и субтитры синхронизированы.
MVO взята от Республика Бурунди
DVO взята от alan parker-

MediaInfo

Формат : Matroska
Версия формата : Version 4 / Version 2
Размер файла : 2,68 Гбайт
Продолжительность : 56 м.
Общий поток : 6759 Кбит/сек
Дата кодирования : UTC 2015-05-28 22:19:43
Программа кодирования : mkvmerge v7.9.0 ('Birds') 64bit
Библиотека кодирования : libebml v1.3.1 + libmatroska v1.4.2
Видео
Идентификатор : 1
Формат : AVC
Формат/Информация : Advanced Video Codec
Профиль формата : High@L4.0
Параметр CABAC формата : Да
Параметр ReFrames формата : 4 кадра
Идентификатор кодека : V_MPEG4/ISO/AVC
Продолжительность : 56 м.
Битрейт : 5856 Кбит/сек
Ширина : 1920 пикселей
Высота : 1080 пикселей
Соотношение сторон : 16:9
Режим частоты кадров : Постоянный
Частота кадров : 25,000 кадров/сек
Цветовое пространство : YUV
Субдискретизация насыщенности : 4:2:0
Битовая глубина : 8 бит
Тип развёртки : Чересстрочная
Порядок развёртки : Верхнее поле первое
Бит/(Пиксели*Кадры) : 0.113
Размер потока : 2,32 Гбайт (87%)
Заголовок : Декалог II / Dekalog, dwa (1990) HDTV 1080i
Язык : Polish
Default : Да
Forced : Нет
Основные цвета : BT.709
Характеристики трансфера : BT.709
Коэффициенты матрицы : BT.709
Аудио #1
Идентификатор : 2
Формат : AC-3
Формат/Информация : Audio Coding 3
Расширение режима : CM (complete main)
Параметр Endianness формата : Big
Идентификатор кодека : A_AC3
Продолжительность : 56 м.
Вид битрейта : Постоянный
Битрейт : 192 Кбит/сек
Каналы : 2 канала
Расположение каналов : Front: L R
Частота : 48,0 КГц
Битовая глубина : 16 бит
Метод сжатия : С потерями
Размер потока : 78,0 Мбайт (3%)
Заголовок : MVO Неоклассика
Язык : Russian
Default : Да
Forced : Нет
Аудио #2
Идентификатор : 3
Формат : AC-3
Формат/Информация : Audio Coding 3
Расширение режима : CM (complete main)
Параметр Endianness формата : Big
Идентификатор кодека : A_AC3
Продолжительность : 56 м.
Вид битрейта : Постоянный
Битрейт : 192 Кбит/сек
Каналы : 2 канала
Расположение каналов : Front: L R
Частота : 48,0 КГц
Битовая глубина : 16 бит
Метод сжатия : С потерями
Размер потока : 78,0 Мбайт (3%)
Заголовок : DVO СВ-Дубль (ТРК Культура)
Язык : Russian
Default : Нет
Forced : Нет
Аудио #3
Идентификатор : 4
Формат : AC-3
Формат/Информация : Audio Coding 3
Расширение режима : CM (complete main)
Параметр Endianness формата : Big
Идентификатор кодека : A_AC3
Продолжительность : 56 м.
Вид битрейта : Постоянный
Битрейт : 384 Кбит/сек
Каналы : 6 каналов
Расположение каналов : Front: L C R, Side: L R, LFE
Частота : 48,0 КГц
Битовая глубина : 16 бит
Метод сжатия : С потерями
Размер потока : 156 Мбайт (6%)
Заголовок : Original
Язык : Polish
Default : Нет
Forced : Нет
Текст #1
Идентификатор : 5
Формат : UTF-8
Идентификатор кодека : S_TEXT/UTF8
Идентификатор кодека/Информация : UTF-8 Plain Text
Заголовок : Subs Rus
Язык : Russian
Default : Нет
Forced : Нет
Текст #2
Идентификатор : 6
Формат : UTF-8
Идентификатор кодека : S_TEXT/UTF8
Идентификатор кодека/Информация : UTF-8 Plain Text
Заголовок : Subs Eng
Язык : English
Default : Нет
Forced : Нет

Скриншоты


-

Раздача ведётся путём добавления новых серий

Внимание! Раздача ведётся путём добавления новых серий; при каждом добавлении создаётся новый торрент. Чтобы начать докачку новой серии, пользователям необходимо сделать следующее:
(1) остановить скачивание,
(2) удалить старый торрент у себя из клиента (старые серии удалять не надо),
(3) скачать новый торрент и запустить его у себя в клиенте вместо старого, при этом указать клиенту путь в старую папку куда и должно происходить скачивание новых серий.
Ваш клиент при этом должен произвести хеширование (проверку) старой папки (если не производит сам - помогите ему сделать это), и будет докачивать только те серии которых у вас ещё нет. Старые серии при этом не удаляются, а продолжают раздаваться!
Eсли вы уже удалили старые серии, то предотвратить повторную закачку старых серий можно, отжав галочку в соответствующих местах при запуске нового торрента. По возможности, желательно не удалять старые серии как можно дольше чтобы релизёр не столько продолжал раздавать старые серии, а смог сконцентрироваться на новых.
-Добавлен Декалог I
Структура раздачи изменена, теперь новые фильмы будут размещаться в папке Dekalog.HDTV.1080i.Rus.Pol
После обновления торрент-файла перед хэшированием сперва перенесите серию №2 в вышеуказанную, созданную клиентом папку или создайте её сами.
-Раздача будет обновляться по мере релиза оригинальных серий с польского эфира.
Спрашивать меня о сроках не надо, буду анонсировать.
Следите за первым комментарием релиза.
-



Показать сообщения:    

Текущее время: 07-Дек 17:30

Часовой пояс: UTC + 3


Вы не можете начинать темы
Вы не можете отвечать на сообщения
Вы не можете редактировать свои сообщения
Вы не можете удалять свои сообщения
Вы не можете голосовать в опросах
Вы не можете прикреплять файлы к сообщениям
Вы не можете скачивать файлы