Белый Бог / White God / Fehér isten (Корнел Мундруцо / Kornél Mundruczó) [2014, Венгрия, Германия, Швеция, драма, BDRip 720p] MVO + Original Hun


 

[Цитировать]

Белый Бог / White God
Страна: Венгрия, Германия, Швеция
Студия: Proton Cinema, Pola Pandora Filmproduktions, Filmpartners
Жанр: драма
Год выпуска: 2014
Продолжительность: 02:00:50
Перевод: Профессиональный (многоголосый закадровый)
Cубтитры: нет
Оригинальная аудиодорожка: Венгерский
Режиссер: Корнел Мундруцо / Kornél Mundruczó
В ролях: Жофия Псотта, Шандор Жотер, Лили Хорват, Сабольч Туроци, Лили Монори, Гергей Банки, Тамаш Полгар, Карой Ашер, Эрика Боднар
Описание: Маленькая девочка Лили очень любит своего мохнатого друга, пса Хагена.
Они неразлучны, они лучшие друзья. Но её отец выбрасывает собаку на улицу.
Наивно веря, что любовь может преодолеть любую трудность, Лили намеревается найти собаку и спасти её.
Всё дело в том, что появился закон о защите породистых собак и вводе налогов на безпородных дворняг. Люди повсеместно избавляются от домашних собак. Приюты для животных заполнены. На улицах огромное количество бродячих собак.
Лили отправляется искать своего друга. Но Хагена отлавливают и с другими собаками собираются отправить на смерть. Но собакам удаётся сбежать и они поднимают восстание против людей. Положить конец начинающейся войне людей и собак сможет любовь Лили.
Доп. информация: За предоставленный Blu-Ray диск благодарность L'

Тип релиза: BDRip 720p
Контейнер: MKV
Видео: MPEG-4 AVC, 6927 Кбит/с, 1280x536, 24,000 fps
Аудио: Russian, AC3, 192 kb/s (2 ch), 48 kHz
Аудио 2: Hungarian, DTS, 1510 kb/s (6 ch), 48 kHz

MediaInfo

x264 [info]: frame I:1043 Avg QP:14.62 size:121413
x264 [info]: frame P:42633 Avg QP:16.03 size: 65608
x264 [info]: frame B:130317 Avg QP:17.55 size: 26936
Format : Matroska
Format version : Version 4 / Version 2
File size : 7.43 GiB
Duration : 2h 0mn
Overall bit rate : 8 803 Kbps
Movie name : Белый Бог. (Tonik)
Encoded date : UTC 2015-05-27 03:13:05
Writing application : mkvmerge v7.1.0 ('Good Love') 64bit built on Jul 27 2014 13:06:55
Writing library : libebml v1.3.0 + libmatroska v1.4.1
_STATISTICS_WRITING_APP : mkvmerge v7.1.0 ('Good Love') 64bit built on Jul 27 2014 13:06:55
_STATISTICS_WRITING_DATE_UTC : 2015-05-27 03:13:05
_STATISTICS_TAGS : BPS DURATION NUMBER_OF_FRAMES NUMBER_OF_BYTES
DURATION : 02:00:49.739000000
NUMBER_OF_FRAMES : 679663
NUMBER_OF_BYTES : 1367482044
Video
ID : 1
Format : AVC
Format/Info : Advanced Video Codec
Format profile : High@L4.1
Format settings, CABAC : Yes
Format settings, ReFrames : 12 frames
Codec ID : V_MPEG4/ISO/AVC
Duration : 2h 0mn
Bit rate : 6 927 Kbps
Width : 1 280 pixels
Height : 536 pixels
Display aspect ratio : 2.40:1
Frame rate mode : Constant
Frame rate : 24.000 fps
Color space : YUV
Chroma subsampling : 4:2:0
Bit depth : 8 bits
Scan type : Progressive
Bits/(Pixel*Frame) : 0.421
Stream size : 5.85 GiB (79%)
Title : Tonik
Writing library : x264 core 146 r2538 121396c
Encoding settings : cabac=1 / ref=12 / deblock=1:-3:-3 / analyse=0x3:0x133 / me=umh / subme=11 / psy=1 / psy_rd=1.00:0.00 / mixed_ref=1 / me_range=32 / chroma_me=1 / trellis=2 / 8x8dct=1 / cqm=0 / deadzone=21,11 / fast_pskip=0 / chroma_qp_offset=-2 / threads=12 / lookahead_threads=3 / sliced_threads=0 / nr=0 / decimate=1 / interlaced=0 / bluray_compat=0 / constrained_intra=0 / bframes=10 / b_pyramid=2 / b_adapt=2 / b_bias=0 / direct=1 / weightb=1 / open_gop=0 / weightp=2 / keyint=250 / keyint_min=24 / scenecut=40 / intra_refresh=0 / rc=crf / mbtree=0 / crf=16.8 / qcomp=0.60 / qpmin=0 / qpmax=69 / qpstep=4 / ip_ratio=1.40 / pb_ratio=1.30 / aq=1:1.00
Language : Hungarian
Default : Yes
Forced : No
_STATISTICS_WRITING_APP : mkvmerge v7.1.0 ('Good Love') 64bit built on Jul 27 2014 13:06:55
_STATISTICS_WRITING_DATE_UTC : 2015-05-27 03:13:05
_STATISTICS_TAGS : BPS DURATION NUMBER_OF_FRAMES NUMBER_OF_BYTES
DURATION : 02:00:49.709000000
NUMBER_OF_FRAMES : 173993
NUMBER_OF_BYTES : 6433959550
Audio #1
ID : 2
Format : AC-3
Format/Info : Audio Coding 3
Mode extension : CM (complete main)
Format settings, Endianness : Big
Codec ID : A_AC3
Duration : 2h 0mn
Bit rate mode : Constant
Bit rate : 192 Kbps
Channel(s) : 2 channels
Channel positions : Front: L R
Sampling rate : 48.0 KHz
Bit depth : 16 bits
Compression mode : Lossy
Stream size : 166 MiB (2%)
Language : Russian
Default : Yes
Forced : No
Audio #2
ID : 3
Format : DTS
Format/Info : Digital Theater Systems
Mode : 16
Format settings, Endianness : Big
Codec ID : A_DTS
Duration : 2h 0mn
Bit rate mode : Constant
Bit rate : 1 509 Kbps
Channel(s) : 6 channels
Channel positions : Front: L C R, Side: L R, LFE
Sampling rate : 48.0 KHz
Bit depth : 24 bits
Compression mode : Lossy
Stream size : 1.27 GiB (17%)
Language : Hungarian
Default : No
Forced : No

Скриншоты




Показать сообщения:    

Текущее время: 09-Дек 14:34

Часовой пояс: UTC + 3


Вы не можете начинать темы
Вы не можете отвечать на сообщения
Вы не можете редактировать свои сообщения
Вы не можете удалять свои сообщения
Вы не можете голосовать в опросах
Вы не можете прикреплять файлы к сообщениям
Вы не можете скачивать файлы