Странный случай Анжелики / O Estranho Caso de Angelica / The Strange Case of Angelica (Мануэл ди Оливейра / Manoel de Oliveira) [2010, Португалия, Испания, Франция, Бразилия, драма, BDRip 720p] + Sub (Rus, Eng) + Original Por


 

[Цитировать]

Странный случай Анжелики
O Estranho Caso de Angélica | The Strange Case of Angelica
- ____ ____ ____ - Страна: Португалия | Испания | Франция | Бразилия
Студия: Les Films de l'Après-Midi, Eddie Saeta S.A., Filmes do Tejo
Жанр: драма
Год выпуска: 2010
Продолжительность: 01:36:24
Перевод: Субтитры
Cубтитры: русские (А. Свинаренко), английские
Оригинальная аудиодорожка: португальский язык-Режиссер: Мануэл ди Оливейра
Сценарий: Мануэл ди Оливейра-В ролях: Пилар Лопес де Айяла, Рикардо Трепа, Филипе Варгас, Леонор Силвейра, Луиш Мигель Синтра, Ана Мария Магалхаес, Изабел Рут, Жозе Мануэл Мендеш, Сюзанна Са, Кармен Сантос.-Описание: Однажды, молодого фотографа Исаака срочно вызывают в дом богатой семьи, чтобы сделать последний портрет их умершей дочери – Анжелики, загадочно скончавшейся сразу после свадьбы. Исаак поражён красотой Анжелики. Когда он смотрит на неё через объектив, происходит нечто странное: молодая женщина, кажется оживает, возвращается к жизни, но только для него одного. Исаак безумно влюбляется в неё. С тех пор образ Анжелики днем и ночью неотступно преследует его до полного истощения сил. Мёртвая Анжелика для него становится более реальной, чем всё, что происходит вокруг…-Сэмпл- ____ -Тип релиза: BDRip 720p
Контейнер: MKV
Видео: H264/AVC | 1280x720p (16:9) | 23.976 fps | ≅4 900 kbps | 0.225 b/p
Аудио: португальский язык | DTS 5.1 (Front: L C R, Side: L R, LFE) | 48 kHz | 1510 kbps | 24 bits
Субтитры: русские (А. Свинаренко), английские
Формат субтитров: Softsub (srt), VobSub

MediaInfo

General
Unique ID                                : 174946298818853064965565760652764280354 (0x839D6E7A6BBFE678B6A631E7D8DC7622)
Complete name                            : D:\O Estranho Caso de Angelica (2010)[720p].mkv
Format                                   : Matroska
Format version                           : Version 2
File size                                : 4.32 GiB
Duration                                 : 1h 36mn
Overall bit rate                         : 6 411 Kbps
Encoded date                             : UTC 2015-05-18 09:30:57
Writing application                      : mkvmerge v6.5.0 ('Isn't she lovely') built on Oct 20 2013 12:50:05
Writing library                          : libebml v1.3.0 + libmatroska v1.4.1
Video
ID                                       : 1
Format                                   : AVC
Format/Info                              : Advanced Video Codec
Format profile                           : High@L4.1
Format settings, CABAC                   : Yes
Format settings, ReFrames                : 5 frames
Codec ID                                 : V_MPEG4/ISO/AVC
Duration                                 : 1h 36mn
Bit rate                                 : 4 967 Kbps
Width                                    : 1 280 pixels
Height                                   : 720 pixels
Display aspect ratio                     : 16:9
Frame rate mode                          : Constant
Frame rate                               : 23.976 fps
Color space                              : YUV
Chroma subsampling                       : 4:2:0
Bit depth                                : 8 bits
Scan type                                : Progressive
Bits/(Pixel*Frame)                       : 0.225
Stream size                              : 3.21 GiB (74%)
Writing library                          : x264 core 130 r2273 b3065e6
Encoding settings                        : cabac=1 / ref=5 / deblock=1:-3:-3 / analyse=0x3:0x113 / me=umh / subme=7 / psy=1 / psy_rd=1.00:0.00 / mixed_ref=1 / me_range=16 / chroma_me=1 / trellis=1 / 8x8dct=1 / cqm=0 / deadzone=21,11 / fast_pskip=1 / chroma_qp_offset=-2 / threads=16 / lookahead_threads=2 / sliced_threads=0 / nr=0 / decimate=1 / interlaced=0 / bluray_compat=0 / constrained_intra=0 / bframes=3 / b_pyramid=2 / b_adapt=1 / b_bias=0 / direct=3 / weightb=1 / open_gop=0 / weightp=2 / keyint=240 / keyint_min=23 / scenecut=40 / intra_refresh=0 / rc_lookahead=50 / rc=abr / mbtree=1 / bitrate=4967 / ratetol=1.0 / qcomp=0.60 / qpmin=0 / qpmax=69 / qpstep=4 / ip_ratio=1.40 / aq=1:1.00
Language                                 : English
Default                                  : Yes
Forced                                   : No
Audio
ID                                       : 2
Format                                   : DTS
Format/Info                              : Digital Theater Systems
Mode                                     : 16
Format settings, Endianness              : Big
Codec ID                                 : A_DTS
Duration                                 : 1h 36mn
Bit rate mode                            : Constant
Bit rate                                 : 1 509 Kbps
Channel(s)                               : 6 channels
Channel positions                        : Front: L C R, Side: L R, LFE
Sampling rate                            : 48.0 KHz
Bit depth                                : 24 bits
Compression mode                         : Lossy
Stream size                              : 1.02 GiB (24%)
Language                                 : Portuguese
Default                                  : Yes
Forced                                   : No
Text #1
ID                                       : 3
Format                                   : UTF-8
Codec ID                                 : S_TEXT/UTF8
Codec ID/Info                            : UTF-8 Plain Text
Title                                    : SRT
Language                                 : Russian
Default                                  : Yes
Forced                                   : No
Text #2
ID                                       : 4
Format                                   : VobSub
Muxing mode                              : zlib
Codec ID                                 : S_VOBSUB
Codec ID/Info                            : The same subtitle format used on DVDs
Language                                 : English
Default                                  : No
Forced                                   : No
Menu
00:00:00.000                             : en:00:00:00.000
00:05:50.850                             : en:00:05:50.850
00:11:18.887                             : en:00:11:18.887
00:20:37.445                             : en:00:20:37.445
00:24:57.413                             : en:00:24:57.413
00:30:50.807                             : en:00:30:50.807
00:37:01.928                             : en:00:37:01.928
00:45:38.069                             : en:00:45:38.069
01:00:03.809                             : en:01:00:03.809
01:05:49.404                             : en:01:05:49.404
01:08:57.383                             : en:01:08:57.383
01:17:43.200                             : en:01:17:43.200
01:23:00.559                             : en:01:23:00.559
01:32:45.894                             : en:01:32:45.894



Показать сообщения:    

Текущее время: 04-Дек 11:14

Часовой пояс: UTC + 3


Вы не можете начинать темы
Вы не можете отвечать на сообщения
Вы не можете редактировать свои сообщения
Вы не можете удалять свои сообщения
Вы не можете голосовать в опросах
Вы не можете прикреплять файлы к сообщениям
Вы не можете скачивать файлы