1984 / Тысяча девятьсот восемьдесят четвёртый / Nineteen Eighty-Four (Майкл Редфорд / Michael Radford) [1984, Великобритания, фантастика, триллер, драма, мелодрама, BDRemux 1080p] DVO (НТВ+) + MVO + VO + Original Eng + Sub (Rus, Eng x2)


 

[Цитировать]

Тысяча девятьсот восемьдесят четвёртый / Nineteen Eighty-Four
Год выпуска: 1984
Страна: Великобритания
Жанр: фантастика, триллер, драма, мелодрама
Продолжительность: 01:50:30
Перевод1: Профессиональный (двухголосый, закадровый) (НТВ+)
Перевод2: Профессиональный (многоголосый, закадровый) (Совэкспортфильм)
Перевод3: Одноголосый (закадровый)
Субтитры: русские, английские x2
Оригинальная аудиодорожка: английский
Режиссер: Майкл Редфорд / Michael Radford
В ролях: Ричард Бертон, Джон Херт, Кирилл Кьюсак, Сюзанна Гамильтон, Грегор Фишер, Джеймс Уолкер
Описание: Для подавления массовых волнений Океании правящая партия заново воссоздает прошлое и настоящее. За каждым гражданином неусыпно наблюдают, каждому с помощью телевидения промывают мозги. И даже двое любовников вынуждены скрывать свои чувства, поскольку секс и межличностные отношения объявлены вне закона.

Качество: BDRemux 1080p
Формат: MKV
Видео кодек: H.264
Аудио кодек: AC3, FLAC
Видео: 1920 x 1080 / MPEG-4 AVC Video / 21999 kbps / 1080p / 23.976 fps / 16:9 / High Profile 4.1
Аудио1: Русский, AC3 2.0 192 Kbps 48,0 КГц (DVO NTV+)
Аудио2: Русский, AC3 2.0 192 Kbps 48,0 КГц (MVO)
Аудио3: Русский, AC3 2.0 192 Kbps 48,0 КГц (VO)
Аудио4: English, FLAC 2.0 ~347 Kbps 48,0 КГц (Original)
Субтитры: Softsub (SRT)
Главы

MediaInfo

Общее
Уникальный идентификатор : 249040126735296789166664647199334191319 (0xBB5B623D0112713ABE92837CA73DD0D7)
Полное имя : D:\Nineteen.Eighty-Four.1984.BDRemux.1080p.3xRus.Eng.mkv
Формат : Matroska
Версия формата : Version 4 / Version 2
Размер файла : 17,6 Гбайт
Продолжительность : 1 ч. 50 м.
Режим общего битрейта : Переменный
Общий поток : 22,9 Мбит/сек
Название фильма : 1984
Дата кодирования : UTC 2015-05-16 13:58:57
Программа кодирования : mkvmerge v7.3.0 ('Nouages') 32bit built on Oct 22 2014 18:44:01
Библиотека кодирования : libebml v1.3.0 + libmatroska v1.4.1
_STATISTICS_WRITING_APP : mkvmerge v7.3.0 ('Nouages') 32bit built on Oct 22 2014 18:44:01
_STATISTICS_WRITING_DATE_UTC : 2015-05-16 13:58:57
_STATISTICS_TAGS : BPS DURATION NUMBER_OF_FRAMES NUMBER_OF_BYTES
DURATION : 01:50:01.910000000
NUMBER_OF_FRAMES : 943
NUMBER_OF_BYTES : 37943
Видео
Идентификатор : 1
Формат : AVC
Формат/Информация : Advanced Video Codec
Профиль формата : High@L4.1
Параметр CABAC формата : Да
Параметр ReFrames формата : 4 кадра
Идентификатор кодека : V_MPEG4/ISO/AVC
Продолжительность : 1 ч. 50 м.
Вид битрейта : Переменный
Максимальный битрейт : 37,0 Мбит/сек
Ширина : 1920 пикселей
Высота : 1080 пикселей
Соотношение сторон : 16:9
Режим частоты кадров : Постоянный
Частота кадров : 23,976 кадра/сек
Цветовое пространство : YUV
Субдискретизация насыщенности : 4:2:0
Битовая глубина : 8 бит
Тип развёртки : Прогрессивная
Заголовок : Nineteen Eighty-Four 1984 1080p AUS Blu-ray AVC DTS-HD MA 2.0
Default : Нет
Forced : Нет
Аудио #1
Идентификатор : 2
Формат : AC-3
Формат/Информация : Audio Coding 3
Расширение режима : CM (complete main)
Параметр Endianness формата : Big
Идентификатор кодека : A_AC3
Продолжительность : 1 ч. 50 м.
Вид битрейта : Постоянный
Битрейт : 192 Кбит/сек
Каналы : 2 канала
Расположение каналов : Front: L R
Частота : 48,0 КГц
Битовая глубина : 16 бит
Метод сжатия : С потерями
Размер потока : 152 Мбайт (1%)
Заголовок : DVO NTV+ AC3 2.0 192 kbps
Язык : Russian
Default : Нет
Forced : Нет
Аудио #2
Идентификатор : 3
Формат : AC-3
Формат/Информация : Audio Coding 3
Расширение режима : CM (complete main)
Параметр Endianness формата : Big
Идентификатор кодека : A_AC3
Продолжительность : 1 ч. 50 м.
Вид битрейта : Постоянный
Битрейт : 192 Кбит/сек
Каналы : 2 канала
Расположение каналов : Front: L R
Частота : 48,0 КГц
Битовая глубина : 16 бит
Метод сжатия : С потерями
Размер потока : 152 Мбайт (1%)
Заголовок : MVO AC3 2.0 192 kbps
Язык : Russian
Default : Нет
Forced : Нет
Аудио #3
Идентификатор : 4
Формат : AC-3
Формат/Информация : Audio Coding 3
Расширение режима : CM (complete main)
Параметр Endianness формата : Big
Идентификатор кодека : A_AC3
Продолжительность : 1 ч. 50 м.
Вид битрейта : Постоянный
Битрейт : 192 Кбит/сек
Каналы : 2 канала
Расположение каналов : Front: L R
Частота : 48,0 КГц
Битовая глубина : 16 бит
Метод сжатия : С потерями
Размер потока : 152 Мбайт (1%)
Заголовок : VO AC3 2.0 192 kbps
Язык : Russian
Default : Нет
Forced : Нет
Аудио #4
Идентификатор : 5
Формат : FLAC
Формат/Информация : Free Lossless Audio Codec
Идентификатор кодека : A_FLAC
Продолжительность : 1 ч. 50 м.
Вид битрейта : Переменный
Каналы : 2 канала
Частота : 48,0 КГц
Битовая глубина : 16 бит
Заголовок : Original FLAC 2.0 ~347 kbps
Библиотека кодирования : libFLAC 1.2.1 (UTC 2007-09-17)
Язык : English
Default : Нет
Forced : Нет
Текст #1
Идентификатор : 6
Формат : UTF-8
Идентификатор кодека : S_TEXT/UTF8
Идентификатор кодека/Информация : UTF-8 Plain Text
Язык : Russian
Default : Нет
Forced : Нет
Текст #2
Идентификатор : 7
Формат : UTF-8
Идентификатор кодека : S_TEXT/UTF8
Идентификатор кодека/Информация : UTF-8 Plain Text
Язык : English
Default : Нет
Forced : Нет
Текст #3
Идентификатор : 8
Формат : UTF-8
Идентификатор кодека : S_TEXT/UTF8
Идентификатор кодека/Информация : UTF-8 Plain Text
Язык : English
Default : Нет
Forced : Нет
Меню
00:00:00.000 : en:00:00:00.000
00:05:56.773 : en:00:05:56.773
00:21:30.331 : en:00:21:30.331
00:35:59.282 : en:00:35:59.282
00:51:19.451 : en:00:51:19.451
01:07:24.624 : en:01:07:24.624
01:19:51.870 : en:01:19:51.870
01:40:47.250 : en:01:40:47.250

Скриншоты




Показать сообщения:    

Текущее время: 10-Дек 00:12

Часовой пояс: UTC + 3


Вы не можете начинать темы
Вы не можете отвечать на сообщения
Вы не можете редактировать свои сообщения
Вы не можете удалять свои сообщения
Вы не можете голосовать в опросах
Вы не можете прикреплять файлы к сообщениям
Вы не можете скачивать файлы