Уильям Тёрнер / Mr. Turner (Майк Ли / Mike Leigh) [2014, Великобритания, Франция, Германия, драма, биография, BDRip 720p] MVO + Sub Rus, Eng + Original Eng


 

[Цитировать]

Уильям Тёрнер / Mr. Turner
Страна: Великобритания, Франция, Германия
Студия: Film4, FFI
Жанр: Драма, биография
Год выпуска: 2014
Продолжительность: 02:30:01
Перевод: Профессиональный (многоголосый закадровый)
Cубтитры: Rus, Eng
Оригинальная аудиодорожка: английский
Режиссер: Майк Ли / Mike Leigh
В ролях: Тимоти Сполл, Пол Джессон, Дороти Эткинсон, Мэрион Бэйли, Карл Джонсон, Рут Шин, Эми Доусон, Лесли Мэнвилл, Мартин Сэвадж
Описание: Фильм исследует (отчасти создает самостоятельно) последнюю четверть века жизни величайшего британского художника Дж. М. У. Тернера.

Тип релиза: BDRip 720p
Контейнер: MKV
Видео: MPEG-4 AVC, 4643 Кбит/с, 1280x536, 23,976 fps
Аудио: Rus, AC3, 384 kb/s (6 ch), 48 kHz
Аудио 2: Eng, AC3, 640 kb/s (6 ch), 48 kHz
Формат субтитров: softsub (SRT)

MediaInfo

Format : Matroska
Format version : Version 4 / Version 2
File size : 6.06 GiB
Duration : 2h 30mn
Overall bit rate : 5 782 Kbps
Movie name : Уильям Тёрнер. (Tonik)
Encoded date : UTC 2015-05-10 18:38:26
Writing application : mkvmerge v7.1.0 ('Good Love') 64bit built on Jul 27 2014 13:06:55
Writing library : libebml v1.3.0 + libmatroska v1.4.1
_STATISTICS_WRITING_APP : mkvmerge v7.1.0 ('Good Love') 64bit built on Jul 27 2014 13:06:55
_STATISTICS_WRITING_DATE_UTC : 2015-05-10 18:38:26
_STATISTICS_TAGS : BPS DURATION NUMBER_OF_FRAMES NUMBER_OF_BYTES
DURATION : 02:30:01.888000000
NUMBER_OF_FRAMES : 281309
NUMBER_OF_BYTES : 432090624
Video
ID : 1
Format : AVC
Format/Info : Advanced Video Codec
Format profile : High@L4.1
Format settings, CABAC : Yes
Format settings, ReFrames : 12 frames
Codec ID : V_MPEG4/ISO/AVC
Duration : 2h 30mn
Bit rate : 4 643 Kbps
Width : 1 280 pixels
Height : 536 pixels
Display aspect ratio : 2.40:1
Frame rate mode : Constant
Frame rate : 23.976 fps
Color space : YUV
Chroma subsampling : 4:2:0
Bit depth : 8 bits
Scan type : Progressive
Bits/(Pixel*Frame) : 0.282
Stream size : 4.87 GiB (80%)
Writing library : x264 core 146 r2538 121396c
Encoding settings : cabac=1 / ref=12 / deblock=1:-3:-3 / analyse=0x3:0x133 / me=umh / subme=10 / psy=1 / psy_rd=0.95:0.00 / mixed_ref=1 / me_range=16 / chroma_me=1 / trellis=2 / 8x8dct=1 / cqm=0 / deadzone=21,11 / fast_pskip=0 / chroma_qp_offset=-2 / threads=12 / lookahead_threads=2 / sliced_threads=0 / nr=0 / decimate=0 / interlaced=0 / bluray_compat=0 / constrained_intra=0 / bframes=9 / b_pyramid=2 / b_adapt=2 / b_bias=0 / direct=3 / weightb=1 / open_gop=0 / weightp=2 / keyint=250 / keyint_min=23 / scenecut=40 / intra_refresh=0 / rc=crf / mbtree=0 / crf=15.5 / qcomp=0.60 / qpmin=0 / qpmax=69 / qpstep=4 / ip_ratio=1.40 / pb_ratio=1.30 / aq=3:0.75 / zones=224,467,crf=10/475,744,crf=11.5/209651,215829,crf=20
Language : English
Default : Yes
Forced : No
_STATISTICS_WRITING_APP : mkvmerge v7.1.0 ('Good Love') 64bit built on Jul 27 2014 13:06:55
_STATISTICS_WRITING_DATE_UTC : 2015-05-10 18:38:26
_STATISTICS_TAGS : BPS DURATION NUMBER_OF_FRAMES NUMBER_OF_BYTES
DURATION : 02:30:01.910000000
NUMBER_OF_FRAMES : 215830
NUMBER_OF_BYTES : 5351138778
Audio #1
ID : 2
Format : AC-3
Format/Info : Audio Coding 3
Mode extension : CM (complete main)
Format settings, Endianness : Big
Codec ID : A_AC3
Duration : 2h 30mn
Bit rate mode : Constant
Bit rate : 384 Kbps
Channel(s) : 6 channels
Channel positions : Front: L C R, Side: L R, LFE
Sampling rate : 48.0 KHz
Bit depth : 16 bits
Compression mode : Lossy
Stream size : 412 MiB (7%)
Language : Russian
Default : Yes
Forced : No
Audio #2
ID : 3
Format : AC-3
Format/Info : Audio Coding 3
Mode extension : CM (complete main)
Format settings, Endianness : Big
Codec ID : A_AC3
Duration : 2h 30mn
Bit rate mode : Constant
Bit rate : 640 Kbps
Channel(s) : 6 channels
Channel positions : Front: L C R, Side: L R, LFE
Sampling rate : 48.0 KHz
Bit depth : 16 bits
Compression mode : Lossy
Stream size : 687 MiB (11%)
Language : English
Default : No
Forced : No
Text #1
ID : 4
Format : UTF-8
Codec ID : S_TEXT/UTF8
Codec ID/Info : UTF-8 Plain Text
Language : Russian
Default : No
Forced : No
Text #2
ID : 5
Format : UTF-8
Codec ID : S_TEXT/UTF8
Codec ID/Info : UTF-8 Plain Text
Language : English
Default : No
Forced : No
Text #3
ID : 6
Format : UTF-8
Codec ID : S_TEXT/UTF8
Codec ID/Info : UTF-8 Plain Text
Title : SDH
Language : English
Default : No
Forced : No
Menu
00:00:00.000 : en:00:00:00.000
00:07:45.215 : en:00:07:45.215
00:18:43.581 : en:00:18:43.581
00:25:50.716 : en:00:25:50.716
00:34:23.687 : en:00:34:23.687
00:39:58.646 : en:00:39:58.646
00:45:32.438 : en:00:45:32.438
00:53:04.431 : en:00:53:04.431
01:02:31.164 : en:01:02:31.164
01:10:31.436 : en:01:10:31.436
01:19:53.539 : en:01:19:53.539
01:27:37.669 : en:01:27:37.669
01:34:22.699 : en:01:34:22.699
01:40:36.572 : en:01:40:36.572
01:47:13.927 : en:01:47:13.927
01:55:12.155 : en:01:55:12.155
02:02:26.631 : en:02:02:26.631
02:09:55.413 : en:02:09:55.413
02:15:23.324 : en:02:15:23.324
02:25:49.741 : en:02:25:49.741

Скриншоты




Показать сообщения:    

Текущее время: 06-Дек 18:58

Часовой пояс: UTC + 3


Вы не можете начинать темы
Вы не можете отвечать на сообщения
Вы не можете редактировать свои сообщения
Вы не можете удалять свои сообщения
Вы не можете голосовать в опросах
Вы не можете прикреплять файлы к сообщениям
Вы не можете скачивать файлы