День гнева / Vredens dag (Карл Теодор Дрейер / Carl Theodor Dreyer) [1943, Дания, драма, BDRemux 1080p] VO + Sub (Rus, Eng) + Original Dan


 

[Цитировать]

День гнева / Vredens dag
Страна: Дания
Жанр: драма
Год выпуска: 1943
Продолжительность: 01:37:17
Перевод: Одноголосый закадровый, Валерий Казаков
Cубтитры: русские, английские
Оригинальная аудиодорожка: датский-Режиссер: Карл Теодор Дрейер / Carl Theodor Dreyer
В ролях: Керстен Андресен, Сигурд Берг, Харольд Хольст, Альберт Хёэберг, Эмануэл Ёргенсон, Софи Надсен, Пребен Лердорф Рай, Лизабет Мовин, Пребен Неергаард, Сигрид Нейендам
Описание: По пьесе Ханса Виерса-Йенсена "Анна, дочь Петера".
1623 год. В маленькой датской общине показательные процессы над ведьмами поставлены на поток. Женщин, обвиненных в колдовстве, сжигают на костре; процессами руководит преподобный Абсолон Педерссен. Суровая воля пастора лишь однажды дала сбой... Теперь его шантажирует приговоренная к смерти Марта Херлофа — если он не спасет ее, она грозит выдать тайну Абсолона...
IMDb || КиноПоиск-Тип релиза: BDRemux 1080p
Контейнер: MKV
Видео: MPEG-4 AVC Video, 1920x1080 at 24 fps, 23500 kbps
Аудио#1: Russian: 48 kHz, AC3, 2.0 ch, 192 kbps
Аудио#2: Danish: 48 kHz, DTS-HD MA, 1.0 ch, 639 kbps (DTS Core: 1.0 / 48 kHz / 510 kbps / 16-bit)
Аудио#3: English: 48 kHz, AC3, 2.0 ch, 192 kbps |Commentary by Danish Dreyer expert Casper Tybjerg
Формат субтитров: softsub (SRT)
Сэмпл

MediaInfo

General
Unique ID : 203743130933958166859191152712978197480 (0x99477FEB37CF3CEEA4C04366C136EBE8)
Complete name : Vredens.dag.1943.BFI.BDRemux. rutracker.mkv
Format : Matroska
Format version : Version 2
File size : 16.7 GiB
Duration : 1h 37mn
Overall bit rate mode : Variable
Overall bit rate : 24.5 Mbps
Movie name : Release for RuTracker
Writing application : mkvmerge v5.0.1 ('Es ist Sommer') built on Nov 6 2011 16:23:40
Writing library : libebml v1.2.2 + libmatroska v1.3.0
Video
ID : 1
Format : AVC
Format/Info : Advanced Video Codec
Format profile : High@L4.1
Format settings, CABAC : Yes
Format settings, ReFrames : 3 frames
Codec ID : V_MPEG4/ISO/AVC
Duration : 1h 37mn
Bit rate mode : Variable
Nominal bit rate : 23.5 Mbps
Maximum bit rate : 38.0 Mbps
Width : 1 920 pixels
Height : 1 080 pixels
Display aspect ratio : 16:9
Frame rate mode : Constant
Frame rate : 24.000 fps
Color space : YUV
Chroma subsampling : 4:2:0
Bit depth : 8 bits
Scan type : Progressive
Bits/(Pixel*Frame) : 0.472
Title : Vredens.dag.1943.BFI.BDRemux. rutracker
Writing library : x264 core 128 r2216 198a7ea
Encoding settings : cabac=1 / ref=4 / deblock=0:-1:-1 / analyse=0x3:0x133 / me=umh / subme=10 / psy=1 / psy_rd=1.00:0.15 / mixed_ref=1 / me_range=24 / chroma_me=1 / trellis=2 / 8x8dct=1 / cqm=0 / deadzone=21,11 / fast_pskip=1 / chroma_qp_offset=-3 / threads=12 / lookahead_threads=2 / sliced_threads=0 / slices=4 / nr=0 / decimate=1 / interlaced=0 / bluray_compat=1 / constrained_intra=0 / bframes=3 / b_pyramid=1 / b_adapt=2 / b_bias=0 / direct=3 / weightb=1 / open_gop=1 / weightp=1 / keyint=24 / keyint_min=1 / scenecut=40 / intra_refresh=0 / rc_lookahead=24 / rc=2pass / mbtree=0 / bitrate=23500 / ratetol=1.0 / qcomp=0.60 / qpmin=0 / qpmax=69 / qpstep=4 / cplxblur=20.0 / qblur=0.5 / vbv_maxrate=38000 / vbv_bufsize=28500 / nal_hrd=vbr / ip_ratio=1.40 / pb_ratio=1.30 / aq=1:0.80
Language : Danish
Default : Yes
Forced : No
Color primaries : BT.709
Transfer characteristics : BT.709
Matrix coefficients : BT.709
Audio #1
ID : 2
Format : AC-3
Format/Info : Audio Coding 3
Mode extension : CM (complete main)
Format settings, Endianness : Big
Codec ID : A_AC3
Duration : 1h 37mn
Bit rate mode : Constant
Bit rate : 192 Kbps
Channel(s) : 2 channels
Channel positions : Front: L R
Sampling rate : 48.0 KHz
Bit depth : 16 bits
Compression mode : Lossy
Stream size : 134 MiB (1%)
Language : Russian
Default : Yes
Forced : No
Audio #2
ID : 3
Format : DTS
Format/Info : Digital Theater Systems
Format profile : MA / Core
Mode : 16
Format settings, Endianness : Big
Codec ID : A_DTS
Duration : 1h 37mn
Bit rate mode : Variable
Bit rate : Unknown / 510 Kbps
Channel(s) : 1 channel
Channel positions : Front: C
Sampling rate : 48.0 KHz
Bit depth : 16 bits
Compression mode : Lossless / Lossy
Language : Danish
Default : No
Forced : No
Audio #3
ID : 4
Format : AC-3
Format/Info : Audio Coding 3
Mode extension : CM (complete main)
Format settings, Endianness : Big
Codec ID : A_AC3
Duration : 1h 37mn
Bit rate mode : Constant
Bit rate : 192 Kbps
Channel(s) : 2 channels
Channel positions : Front: L R
Sampling rate : 48.0 KHz
Bit depth : 16 bits
Compression mode : Lossy
Stream size : 134 MiB (1%)
Title : commentary
Language : English
Default : No
Forced : No
Text #1
ID : 5
Format : UTF-8
Codec ID : S_TEXT/UTF8
Codec ID/Info : UTF-8 Plain Text
Language : Russian
Default : No
Forced : No
Text #2
ID : 6
Format : UTF-8
Codec ID : S_TEXT/UTF8
Codec ID/Info : UTF-8 Plain Text
Language : English
Default : No
Forced : No
Menu
00:00:00.000 : en:Opening titles
00:01:42.108 : en:Herlof's Marte
00:04:44.112 : en:Mother-in-law
00:07:05.118 : en:Anne meets Martin
00:08:56.104 : en:"The Maiden & the Apple Tree"
00:10:32.124 : en:Witchhunt
00:15:33.874 : en:"You should pray for your soul"
00:19:34.842 : en:Day of Wrath
00:20:35.000 : en:Confession
00:26:37.756 : en:A long walk
00:28:15.214 : en:"I don't want to burn"
00:30:19.000 : en:The stake
00:35:03.537 : en:"...between God and Anne"
00:40:26.000 : en:"I never thought of that"
00:44:49.114 : en:Invocation
00:47:17.364 : en:The birches
00:50:19.879 : en:"How will this all end?"
00:57:10.883 : en:The river
00:59:08.117 : en:Master Laurentius
01:03:48.726 : en:Storm
01:11:18.118 : en:Absolon returns
01:16:22.268 : en:"You took my youth"
01:19:35.106 : en:The bog
01:22:09.208 : en:Keeping vigil
01:27:24.316 : en:Eulogy
01:31:11.139 : en:Accusation

Скриншоты




Показать сообщения:    

Текущее время: 02-Дек 23:04

Часовой пояс: UTC + 3


Вы не можете начинать темы
Вы не можете отвечать на сообщения
Вы не можете редактировать свои сообщения
Вы не можете удалять свои сообщения
Вы не можете голосовать в опросах
Вы не можете прикреплять файлы к сообщениям
Вы не можете скачивать файлы