Дикая / Wild (Жан-Марк Валле / Jean-Marc Vallée) [2014, США, драма, биография, BDRip 1080p] Dub + Sub Rus, Eng + Original Eng


 

[Цитировать]

Дикая / Wild
Страна: США
Студия: Fox Searchlight Pictures, Pacific Standard
Жанр: Драма, биография
Год выпуска: 2014
Продолжительность: 01:55:36
Перевод: Профессиональный (дублированный)
Cубтитры: Rus, Eng
Оригинальная аудиодорожка: английский
Режиссер: Жан-Марк Валле / Jean-Marc Vallée
В ролях: Риз Уизерспун, Лора Дерн, Томас Садоски, Гэби Хоффманн, Кевин О. Ранкин, Брайан Ван Холт, У. Эрл Браун
Описание: В центре сюжета Шерил Стрэйд, раздавленная неудавшимся браком и смертью матери и потерявшая всякую надежду на счастье женщина, отправляется в пешее странствие по территории Pacific Crest Trail — маршруту по наиболее высоким участкам хребта Сьерра-Невада и Каскадных гор. Испытания, выпавшие в этом опасном одиночном путешествии на долю героини, неминуемо исцеляют ее от душевных страданий, но процесс этот будет отнюдь не безболезненны

Тип релиза: BDRip 1080p
Контейнер: MKV
Видео: MPEG-4 AVC, 14.0 Mбит/с, 1920x804, 23,976 fps
Аудио: Rus, DTS, 768 kb/s (6 ch), 48 kHz
Аудио 2: Eng, DTS, 1510 kb/s (6 ch), 48 kHz
Формат субтитров: softsub (SRT)

MediaInfo

Format : Matroska
Format version : Version 4 / Version 2
File size : 13.4 GiB
Duration : 1h 55mn
Overall bit rate : 16.6 Mbps
Movie name : Дикая. (Tonik)
Encoded date : UTC 2015-05-08 13:23:17
Writing application : mkvmerge v7.1.0 ('Good Love') 64bit built on Jul 27 2014 13:06:55
Writing library : libebml v1.3.0 + libmatroska v1.4.1
_STATISTICS_WRITING_APP : mkvmerge v7.1.0 ('Good Love') 64bit built on Jul 27 2014 13:06:55
_STATISTICS_WRITING_DATE_UTC : 2015-05-08 13:23:17
_STATISTICS_TAGS : BPS DURATION NUMBER_OF_FRAMES NUMBER_OF_BYTES
DURATION : 01:54:43.708000000
NUMBER_OF_FRAMES : 1513
NUMBER_OF_BYTES : 41637
Video
ID : 1
Format : AVC
Format/Info : Advanced Video Codec
Format profile : High@L4.1
Format settings, CABAC : Yes
Format settings, ReFrames : 5 frames
Codec ID : V_MPEG4/ISO/AVC
Duration : 1h 55mn
Bit rate : 14.0 Mbps
Width : 1 920 pixels
Height : 804 pixels
Display aspect ratio : 2.40:1
Frame rate mode : Constant
Frame rate : 23.976 fps
Color space : YUV
Chroma subsampling : 4:2:0
Bit depth : 8 bits
Scan type : Progressive
Bits/(Pixel*Frame) : 0.377
Stream size : 11.3 GiB (84%)
Writing library : x264 core 140 r2377 1ca7bb9
Encoding settings : cabac=1 / ref=5 / deblock=1:-3:-3 / analyse=0x3:0x133 / me=umh / subme=10 / psy=1 / psy_rd=1.03:0.00 / mixed_ref=1 / me_range=48 / chroma_me=1 / trellis=2 / 8x8dct=1 / cqm=0 / deadzone=21,11 / fast_pskip=0 / chroma_qp_offset=-2 / threads=12 / lookahead_threads=2 / sliced_threads=0 / nr=0 / decimate=0 / interlaced=0 / bluray_compat=0 / constrained_intra=0 / bframes=8 / b_pyramid=2 / b_adapt=2 / b_bias=0 / direct=3 / weightb=1 / open_gop=0 / weightp=2 / keyint=240 / keyint_min=23 / scenecut=40 / intra_refresh=0 / rc_lookahead=60 / rc=crf / mbtree=0 / crf=17.0 / qcomp=0.65 / qpmin=0 / qpmax=69 / qpstep=4 / vbv_maxrate=62500 / vbv_bufsize=78125 / crf_max=0.0 / nal_hrd=none / filler=0 / ip_ratio=1.30 / pb_ratio=1.20 / aq=1:0.77
Language : English
Default : Yes
Forced : No
DURATION : 01:55:36.930000000
NUMBER_OF_FRAMES : 166320
NUMBER_OF_BYTES : 12384900629
_STATISTICS_WRITING_APP : mkvmerge v7.1.0 ('Good Love') 64bit built on Jul 27 2014 13:06:55
_STATISTICS_WRITING_DATE_UTC : 2015-05-08 13:23:17
_STATISTICS_TAGS : BPS DURATION NUMBER_OF_FRAMES NUMBER_OF_BYTES
Audio #1
ID : 2
Format : DTS
Format/Info : Digital Theater Systems
Mode : 16
Format settings, Endianness : Big
Codec ID : A_DTS
Duration : 1h 55mn
Bit rate mode : Constant
Bit rate : 768 Kbps
Channel(s) : 6 channels
Channel positions : Front: L C R, Side: L R, LFE
Sampling rate : 48.0 KHz
Bit depth : 24 bits
Compression mode : Lossy
Stream size : 635 MiB (5%)
Language : Russian
Default : Yes
Forced : No
Audio #2
ID : 3
Format : DTS
Format/Info : Digital Theater Systems
Mode : 16
Format settings, Endianness : Big
Codec ID : A_DTS
Duration : 1h 55mn
Bit rate mode : Constant
Bit rate : 1 509 Kbps
Channel(s) : 6 channels
Channel positions : Front: L C R, Side: L R, LFE
Sampling rate : 48.0 KHz
Bit depth : 24 bits
Compression mode : Lossy
Stream size : 1.22 GiB (9%)
Language : English
Default : No
Forced : No
Text #1
ID : 4
Format : UTF-8
Codec ID : S_TEXT/UTF8
Codec ID/Info : UTF-8 Plain Text
Title : Forced
Language : Russian
Default : Yes
Forced : No
Text #2
ID : 5
Format : UTF-8
Codec ID : S_TEXT/UTF8
Codec ID/Info : UTF-8 Plain Text
Title : Full
Language : Russian
Default : No
Forced : No
Text #3
ID : 6
Format : UTF-8
Codec ID : S_TEXT/UTF8
Codec ID/Info : UTF-8 Plain Text
Title : Commentary, Blu-ray EUR
Language : Russian
Default : No
Forced : No
Text #4
ID : 7
Format : UTF-8
Codec ID : S_TEXT/UTF8
Codec ID/Info : UTF-8 Plain Text
Language : English
Default : No
Forced : No
Text #5
ID : 8
Format : UTF-8
Codec ID : S_TEXT/UTF8
Codec ID/Info : UTF-8 Plain Text
Title : SDH
Language : English
Default : No
Forced : No
Menu
00:00:00.000 : en:00:00:00.000
00:02:57.177 : en:00:02:57.177
00:05:48.306 : en:00:05:48.306
00:09:36.910 : en:00:09:36.910
00:12:02.013 : en:00:12:02.013
00:14:56.729 : en:00:14:56.729
00:19:38.344 : en:00:19:38.344
00:22:42.319 : en:00:22:42.319
00:26:09.443 : en:00:26:09.443
00:31:03.987 : en:00:31:03.987
00:33:42.646 : en:00:33:42.646
00:35:58.990 : en:00:35:58.990
00:40:35.600 : en:00:40:35.600
00:44:04.976 : en:00:44:04.976
00:47:38.814 : en:00:47:38.814
00:51:52.026 : en:00:51:52.026
00:54:43.071 : en:00:54:43.071
00:58:57.617 : en:00:58:57.617
01:02:13.438 : en:01:02:13.438
01:04:54.182 : en:01:04:54.182
01:07:52.402 : en:01:07:52.402
01:11:53.184 : en:01:11:53.184
01:15:15.136 : en:01:15:15.136
01:18:05.723 : en:01:18:05.723
01:20:57.936 : en:01:20:57.936
01:23:13.280 : en:01:23:13.280
01:26:39.611 : en:01:26:39.611
01:29:24.401 : en:01:29:24.401
01:32:09.149 : en:01:32:09.149
01:34:41.175 : en:01:34:41.175
01:36:37.458 : en:01:36:37.458
01:38:04.587 : en:01:38:04.587
01:41:03.182 : en:01:41:03.182
01:43:11.102 : en:01:43:11.102
01:47:12.343 : en:01:47:12.343
01:50:33.001 : en:01:50:33.001

Скриншоты




Показать сообщения:    

Текущее время: 11-Дек 05:21

Часовой пояс: UTC + 3


Вы не можете начинать темы
Вы не можете отвечать на сообщения
Вы не можете редактировать свои сообщения
Вы не можете удалять свои сообщения
Вы не можете голосовать в опросах
Вы не можете прикреплять файлы к сообщениям
Вы не можете скачивать файлы