Вечное возвращение (Кира Муратова) [2012, Украина, мелодрама, комедия, HDTV 1080i] + Original Rus


 

[Цитировать]

Вечное возвращение Страна: Украина
Жанр: мелодрама, комедия
Год выпуска: 2012
Продолжительность: 01:50:01
Перевод: Не требуется
Cубтитры: нет
Оригинальная аудиодорожка: русский
Режиссер: Кира Муратова
В ролях: Рената Литвинова, Олег Табаков, Сергей Маковецкий, Алла Демидова, Виталий Линецкий, Наталья Бузько, Георгий Делиев, Ута Кильтер, Юрий Невгамонный, Геннадий Скарга
Описание: Герои фильма — мужчина и женщина, не встречавшиеся много лет. Пришел мужчина к женщине. Пришел в шляпе, да так волновался, что забыл ее снять. Они однокурсники, не виделись сто лет, он и живет давно в другом городе, а сюда приехал в командировку. И сразу к ней, с вопросом: как поделить себя между женой и любовницей? Ни один совет не звучит убедительно: он любит обеих, но жить с обеими не в состоянии. Озлившись, визитер хлопает дверью. Но приходит вновь, ведь других знакомых в этом городе у него нет. И возвращается. И возвращается.
Сэмпл: http://rusfolder.com/43610097

Тип релиза: HDTV 1080i
Контейнер: TS
Видео: AVC/H.264, 1920x1080 (16:9), 9521 Кбит/сек, 25.000 fps
Аудио 1: русский, MP2, 2ch, 48,0 КГц, 192 Кбит/сек
Аудио 2: русский, AC-3, 6ch, 48,0 КГц, 448 Кбит/сек

MediaInfo

Общее
Идентификатор : 1 (0x1)
Полное имя : C:\Documents and Settings\User\Рабочий стол\Вечное возвращение.ts
Формат : MPEG-TS
Размер файла : 8,22 Гбайт
Продолжительность : 1 ч. 50 м.
Режим общего битрейта : Переменный
Общий поток : 10,7 Мбит/сек
Видео
Идентификатор : 3551 (0xDDF)
Идентификатор меню : 1 (0x1)
Формат : AVC
Формат/Информация : Advanced Video Codec
Профиль формата : Main@L4.0
Параметр CABAC формата : Да
Параметр ReFrames формата : 3 кадра
Параметр GOP формата : M=4, N=32
Идентификатор кодека : 27
Продолжительность : 1 ч. 50 м.
Битрейт : 9521 Кбит/сек
Ширина : 1920 пикселей
Высота : 1080 пикселей
Соотношение сторон : 16:9
Частота кадров : 25,000 кадров/сек
Стандарт вещания : Component
Цветовое пространство : YUV
Субдискретизация насыщенности : 4:2:0
Битовая глубина : 8 бит
Тип развёртки : Чересстрочная
Порядок развёртки : Верхнее поле первое
Бит/(Пиксели*Кадры) : 0.184
Размер потока : 7,32 Гбайт (89%)
Основные цвета : BT.709
Характеристики трансфера : BT.709
Коэффициенты матрицы : BT.709
colour_range : Limited
Аудио #1
Идентификатор : 3552 (0xDE0)
Идентификатор меню : 1 (0x1)
Формат : MPEG Audio
Версия формата : Version 1
Профиль формата : Layer 2
Идентификатор кодека : 3
Продолжительность : 1 ч. 50 м.
Вид битрейта : Постоянный
Битрейт : 192 Кбит/сек
Каналы : 2 канала
Частота : 48,0 КГц
Метод сжатия : С потерями
Размер потока : 151 Мбайт (2%)
Язык : Russian
Аудио #2
Идентификатор : 3553 (0xDE1)
Идентификатор меню : 1 (0x1)
Формат : AC-3
Формат/Информация : Audio Coding 3
Расширение режима : CM (complete main)
Параметр Endianness формата : Big
Идентификатор кодека : 6
Продолжительность : 1 ч. 50 м.
Вид битрейта : Постоянный
Битрейт : 448 Кбит/сек
Каналы : 6 каналов
Расположение каналов : Front: L C R, Side: L R, LFE
Частота : 48,0 КГц
Битовая глубина : 16 бит
Метод сжатия : С потерями
Размер потока : 353 Мбайт (4%)
Язык : Russian

Скриншот c названием фильма

Скриншоты




Показать сообщения:    

Текущее время: 02-Дек 21:13

Часовой пояс: UTC + 3


Вы не можете начинать темы
Вы не можете отвечать на сообщения
Вы не можете редактировать свои сообщения
Вы не можете удалять свои сообщения
Вы не можете голосовать в опросах
Вы не можете прикреплять файлы к сообщениям
Вы не можете скачивать файлы