Натянутая тетива / Hwal / The Bow (Ким Ки-Дук / Kim Ki-Duk) [2005, Южная Корея, Япония, драма, мелодрама, BDRip 720p] VO (R5) + Sub Rus, Eng + Original Kor


 

[Цитировать]

Натянутая тетива / Hwal / The Bow
Страна: Южная Корея, Япония
Студия: Happinet Pictures, Kim Ki-Duk Film
Жанр: драма, мелодрама
Год выпуска: 2005
Продолжительность: 01:28:48
Перевод: Студийный (одноголосый закадровый) R5
Cубтитры: русские, английские (srt)
Оригинальная аудиодорожка: корейский
Режиссер: Ким Ки-Дук / Kim Ki-Duk
В ролях: Хан Йо-Рым, Сео Си-Джик, Чой Сунг-Хван, Сео Мин-Джон
Описание: В море на барже живут 60-летний мужчина и 16-летняя девушка, которую он взял на воспитание еще ребенком. Она обладает таинственным даром предсказывать судьбу. Мужчина заботится о девушке: одевает, кормит, купает. Он безумно в нее влюблен и уверен, что это чувство взаимно, до свадьбы осталось несколько месяцев. Появление на барже молодого человека, в которого влюбляется девушка, разрушает размеренную жизнь героев…
Релиз от -
Сэмпл: http://multi-up.com/1047440
Тип релиза: BDRip 720p / TTSeo
Контейнер: MKV
Видео: MPEG-4 AVC Video / 5353 Kbps / 1280 х 720p / 23.976 fps
Аудио 1: Dolby Digital Audio / Russian / 5.1 / 48 kHz / 384 kbps / 16-bit
Аудио 2: Digital Theater Systems / Korean / 5.1 / 48 kHz / 1509 kbps / 24-bit

MediaInfo

General
Unique ID : 203575013062921216650521389102829347986 (0x99271F115CF5C85AA0A7DF6EEBCF2492)
Complete name : D:\kirovtorrent\The.Bow.2005.720p.BluRay.x264.DTS.mkv
Format : Matroska
Format version : Version 4 / Version 2
File size : 4.59 GiB
Duration : 1h 28mn
Overall bit rate : 7 393 Kbps
Movie name : The.Bow.2005.720p
Encoded date : UTC 2015-05-07 10:48:59
Writing application : mkvmerge v6.8.0 ('Theme for Great Cities') 64bit built on Mar 2 2014 21:34:26
Writing library : libebml v1.3.0 + libmatroska v1.4.1
Video
ID : 1
Format : AVC
Format/Info : Advanced Video Codec
Format profile : High@L4.1
Format settings, CABAC : Yes
Format settings, ReFrames : 9 frames
Codec ID : V_MPEG4/ISO/AVC
Duration : 1h 28mn
Bit rate : 5 353 Kbps
Width : 1 280 pixels
Height : 720 pixels
Display aspect ratio : 16:9
Frame rate mode : Constant
Frame rate : 23.976 fps
Color space : YUV
Chroma subsampling : 4:2:0
Bit depth : 8 bits
Scan type : Progressive
Bits/(Pixel*Frame) : 0.242
Stream size : 3.32 GiB (72%)
Title : RG Orient Extreme Films
Writing library : x264 core 142 r2431 ac76440
Encoding settings : cabac=1 / ref=9 / deblock=1:-1:-1 / analyse=0x3:0x133 / me=umh / subme=11 / psy=1 / psy_rd=1.00:0.15 / mixed_ref=1 / me_range=32 / chroma_me=1 / trellis=2 / 8x8dct=1 / cqm=0 / deadzone=21,11 / fast_pskip=1 / chroma_qp_offset=-3 / threads=6 / lookahead_threads=1 / sliced_threads=0 / nr=0 / decimate=1 / interlaced=0 / bluray_compat=0 / constrained_intra=0 / bframes=8 / b_pyramid=2 / b_adapt=2 / b_bias=0 / direct=3 / weightb=1 / open_gop=0 / weightp=2 / keyint=240 / keyint_min=23 / scenecut=40 / intra_refresh=0 / rc_lookahead=60 / rc=crf / mbtree=1 / crf=17.5 / qcomp=0.60 / qpmin=0 / qpmax=69 / qpstep=4 / vbv_maxrate=62500 / vbv_bufsize=78125 / crf_max=0.0 / nal_hrd=none / filler=0 / ip_ratio=1.40 / aq=1:1.00
Language : Korean
Default : Yes
Forced : No
Audio #1
ID : 2
Format : AC-3
Format/Info : Audio Coding 3
Mode extension : CM (complete main)
Format settings, Endianness : Big
Codec ID : A_AC3
Duration : 1h 28mn
Bit rate mode : Constant
Bit rate : 384 Kbps
Channel(s) : 6 channels
Channel positions : Front: L C R, Side: L R, LFE
Sampling rate : 48.0 KHz
Bit depth : 16 bits
Compression mode : Lossy
Stream size : 244 MiB (5%)
Title : VO (R5) AC3 5.1 @ 384k
Language : Russian
Default : Yes
Forced : No
Audio #2
ID : 3
Format : DTS
Format/Info : Digital Theater Systems
Mode : 16
Format settings, Endianness : Big
Codec ID : A_DTS
Duration : 1h 28mn
Bit rate mode : Constant
Bit rate : 1 509 Kbps
Channel(s) : 6 channels
Channel positions : Front: L C R, Side: L R, LFE
Sampling rate : 48.0 KHz
Bit depth : 24 bits
Compression mode : Lossy
Stream size : 958 MiB (20%)
Title : ORG DTS 5.1 @ 1509k
Language : Korean
Default : No
Forced : No
Text #1
ID : 4
Format : UTF-8
Codec ID : S_TEXT/UTF8
Codec ID/Info : UTF-8 Plain Text
Language : Russian
Default : No
Forced : No
Text #2
ID : 5
Format : UTF-8
Codec ID : S_TEXT/UTF8
Codec ID/Info : UTF-8 Plain Text
Language : English
Default : No
Forced : No
Menu
00:00:00.000 : en:00:00:00.000
00:15:01.567 : en:00:15:01.567
00:30:01.883 : en:00:30:01.883
00:45:02.700 : en:00:45:02.700
01:00:04.059 : en:01:00:04.059
01:15:05.376 : en:01:15:05.376

Скриншоты




Показать сообщения:    

Текущее время: 03-Дек 05:28

Часовой пояс: UTC + 3


Вы не можете начинать темы
Вы не можете отвечать на сообщения
Вы не можете редактировать свои сообщения
Вы не можете удалять свои сообщения
Вы не можете голосовать в опросах
Вы не можете прикреплять файлы к сообщениям
Вы не можете скачивать файлы