Боги / Bogowie (Лукаш Палковски / Lukasz Palkowski) [2014, Польша, драма, криминал, BDRip 720p] VO (by Shoegaze) + Sub Rus, Eng, Pol + Original Pol


 

[Цитировать]

Боги / Bogowie Ringer Информация о фильме:
Год выпуска: 2014
Страна: Польша / Watch Out Productions
Жанр: драма, биография
Продолжительность: 01:55:58
Перевод: Одноголосый закадровый / Озвучено: by Shoegaze
Оригинальная аудиодорожка: польский
Cубтитры: Русские, Английские, Польские (SRT)
Режиссер: Лукаш Палковски
В ролях: Томаш Кот, Петр Гловацкий, Шимон Пётр Варшавский, Магдалена Червиньска, Рафаль Заверуха, Марта Цислович, Каролина Пихот, Войцех Соларш, Аркадиуш Яничек, Цезари Косиньски
Описание: Фильм рассказывает о начале карьеры известного польского кардиохирурга Збигнева Религи, который в 1985 году сделал первую в Польше успешную операцию по пересадке сердца…
Сэмпл: http://multi-up.com/1046228
Скачать: HDRip
Перевод: Субтитры Марина Болевска / "LIDEX"
Файл
Качество видео: BDRip 720р
Формат видео: mkv
Видео: x264, 25.000 fps, 6624 kbps, 1280x536
Аудио #1: AC3, 48.0 kHz, 6 ch, 448 kbps
Аудио #2: DTS, 48.0 kHz, 6 ch, 1506 kbps
Формат субтитров: softsub (SRT)

MediaInfo

General
Unique ID : 178748060270083744770737131050326327223 (0x86799FCA193961A6AF276EBC46647FB7)
Complete name : Bogowie.2014.720p.BluRay.DTS.x264.mkv
Format : Matroska
Format version : Version 4 / Version 2
File size : 7.09 GiB
Duration : 1h 55mn
Overall bit rate : 8 755 Kbps
Encoded date : UTC 2015-04-30 10:40:08
Writing application : mkvmerge v7.7.0 ('Six Voices') 64bit built on Feb 28 2015 23:39:33
Writing library : libebml v1.3.1 + libmatroska v1.4.2
DURATION : 01:55:57.824000000
NUMBER_OF_FRAMES : 217432
NUMBER_OF_BYTES : 389638144
_STATISTICS_WRITING_APP : mkvmerge v7.7.0 ('Six Voices') 64bit built on Feb 28 2015 23:39:33
_STATISTICS_WRITING_DATE_UT : 2015-04-30 10:40:08
_STATISTICS_TAGS : BPS DURATION NUMBER_OF_FRAMES NUMBER_OF_BYTES
Video
ID : 1
Format : AVC
Format/Info : Advanced Video Codec
Format profile : High@L4.1
Format settings, CABAC : Yes
Format settings, ReFrames : 12 frames
Codec ID : V_MPEG4/ISO/AVC
Duration : 1h 55mn
Bit rate : 6 624 Kbps
Width : 1 280 pixels
Height : 536 pixels
Display aspect ratio : 2.40:1
Frame rate mode : Constant
Frame rate : 25.000 fps
Color space : YUV
Chroma subsampling : 4:2:0
Bit depth : 8 bits
Scan type : Progressive
Bits/(Pixel*Frame) : 0.386
Stream size : 5.37 GiB (76%)
Writing library : x264 core 142 r2491 24e4fed
Encoding settings : cabac=1 / ref=12 / deblock=1:-3:-3 / analyse=0x3:0x133 / me=tesa / subme=11 / psy=1 / psy_rd=1.05:0.00 / mixed_ref=1 / me_range=24 / chroma_me=1 / trellis=2 / 8x8dct=1 / cqm=0 / deadzone=21,11 / fast_pskip=0 / chroma_qp_offset=-2 / threads=12 / lookahead_threads=3 / sliced_threads=0 / nr=0 / decimate=1 / interlaced=0 / bluray_compat=0 / constrained_intra=0 / bframes=11 / b_pyramid=2 / b_adapt=2 / b_bias=0 / direct=3 / weightb=1 / open_gop=0 / weightp=2 / keyint=250 / keyint_min=25 / scenecut=40 / intra_refresh=0 / rc=crf / mbtree=0 / crf=16.5 / qcomp=0.70 / qpmin=0 / qpmax=69 / qpstep=4 / ip_ratio=1.40 / pb_ratio=1.30 / aq=1:0.70
Language : English
Default : Yes
Forced : No
Matrix coefficients : BT.709
Color range : Limited
DURATION : 01:55:57.840000000
NUMBER_OF_FRAMES : 173946
NUMBER_OF_BYTES : 5909931209
_STATISTICS_WRITING_APP : mkvmerge v7.7.0 ('Six Voices') 64bit built on Feb 28 2015 23:39:33
_STATISTICS_WRITING_DATE_UT : 2015-04-30 10:40:08
_STATISTICS_TAGS : BPS DURATION NUMBER_OF_FRAMES NUMBER_OF_BYTES
Audio #1
ID : 2
Format : AC-3
Format/Info : Audio Coding 3
Mode extension : CM (complete main)
Format settings, Endianness : Big
Codec ID : A_AC3
Duration : 1h 55mn
Bit rate mode : Constant
Bit rate : 448 Kbps
Channel(s) : 6 channels
Channel positions : Front: L C R, Side: L R, LFE
Sampling rate : 48.0 KHz
Bit depth : 16 bits
Compression mode : Lossy
Stream size : 372 MiB (5%)
Language : Russian
Default : Yes
Forced : Yes
Audio #2
ID : 3
Format : DTS
Format/Info : Digital Theater Systems
Mode : 16
Format settings, Endianness : Big
Codec ID : A_DTS
Duration : 1h 55mn
Bit rate mode : Constant
Bit rate : 1 509 Kbps
Channel(s) : 6 channels
Channel positions : Front: L C R, Side: L R, LFE
Sampling rate : 48.0 KHz
Bit depth : 24 bits
Compression mode : Lossy
Stream size : 1.22 GiB (17%)
Language : Polish
Default : No
Forced : No
Text #1
ID : 4
Format : UTF-8
Codec ID : S_TEXT/UTF8
Codec ID/Info : UTF-8 Plain Text
Language : Russian
Default : No
Forced : No
Text #2
ID : 5
Format : UTF-8
Codec ID : S_TEXT/UTF8
Codec ID/Info : UTF-8 Plain Text
Language : English
Default : No
Forced : No
Text #3
ID : 6
Format : UTF-8
Codec ID : S_TEXT/UTF8
Codec ID/Info : UTF-8 Plain Text
Language : Polish
Default : No
Forced : No
Menu
00:00:00.000 : en:00:00:00.000
00:07:29.240 : en:00:07:29.240
00:15:26.280 : en:00:15:26.280
00:24:46.160 : en:00:24:46.160
00:30:10.120 : en:00:30:10.120
00:38:06.120 : en:00:38:06.120
00:44:55.160 : en:00:44:55.160
00:51:05.600 : en:00:51:05.600
00:58:07.760 : en:00:58:07.760
01:05:49.000 : en:01:05:49.000
01:12:08.320 : en:01:12:08.320
01:20:23.720 : en:01:20:23.720
01:28:16.640 : en:01:28:16.640
01:36:12.640 : en:01:36:12.640
01:41:55.120 : en:01:41:55.120
01:48:58.840 : en:01:48:58.840

Скриншот c названием фильма

Скриншоты




Показать сообщения:    

Текущее время: 06-Дек 20:58

Часовой пояс: UTC + 3


Вы не можете начинать темы
Вы не можете отвечать на сообщения
Вы не можете редактировать свои сообщения
Вы не можете удалять свои сообщения
Вы не можете голосовать в опросах
Вы не можете прикреплять файлы к сообщениям
Вы не можете скачивать файлы