Любовники с Нового моста / Les Amants du Pont-Neuf (Леос Каракс / Leos Carax) [1991, Франция, драма, BDRip 720p] DVO (Новый диск R5) + DVO (Юниверсал R5) + DVO (ОРТ) + AVO (Сергей Козлов) + Sub Eng, Rus + Original Fre


 

[Цитировать]

Любовники с Нового моста / Les Amants du Pont-Neuf
Страна: Франция
Жанр: драма
Год выпуска: 1991
Продолжительность: 02:05:47
Перевод: Профессиональный (двухголосый закадровый) (Новый диск R5)
Перевод 2: Профессиональный (двухголосый закадровый) (Юниверсал R5)
Перевод 3: Профессиональный (двухголосый закадровый) (ОРТ)
Перевод 4: Авторский (одноголосый закадровый) (Сергей Козлов)
Cубтитры: русские, английские
Оригинальная аудиодорожка: французский
Режиссер: Леос Каракс / Leos Carax
В ролях: Жюльетт Бинош, Клаус-Михаэль Грюбер, Дени Лаван, Мари Трентиньян
Описание: Выйдя из ночлежки для бездомных, где он лечился после наезда, совершенного на него неизвестным водителем, уличный факир Алекс возвращается ночевать на старейший парижский мост Понт — Неф, где кроме своего обычного напарника, снабжающего его наркотиками, обнаруживает молодую художницу Мишель, которая, потеряв зрение, решила оставить дом и друзей. У Алекса и Мишель возникает стремительный и пьянящий, но целительный для обоих роман.
Доп. информация:


Тип релиза: BDRip 720p| sample
Контейнер: MKV
Видео: H.264/AVC, 1200x720, 1.67:1, 23.976fps, ~8117 Kbps
Аудио #1 RUS: DD 5.1, 48 kHz, 384 kbps
Аудио #2 RUS: DD 2.0, 48 kHz, 192 kbps
Аудио #3 RUS: DD 2.0, 48 kHz, 192 kbps
Аудио #4 RUS: DD 2.0, 48 kHz, 192 kbps
Аудио #5 FRE: FLAC 2.0, 48 kHz, ~450 kbps
Формат субтитров: softsub (SRT)

MediaInfo

General
Unique ID                                : 228697355093180093250531965517722840057 (0xAC0D8228F7A1FE3BA52F99AB78686BF9)
Complete name                            : Les amants du Pont-Neuf 1991 720p BluRay FLAC x264 4xRus Fre.mkv
Format                                   : Matroska
Format version                           : Version 4 / Version 2
File size                                : 8.36 GiB
Duration                                 : 2h 5mn
Overall bit rate mode                    : Variable
Overall bit rate                         : 9 513 Kbps
Movie name                               : Les amants du Pont-Neuf (1991)
Encoded date                             : UTC 2015-04-30 08:38:21
Writing application                      : mkvmerge v7.6.0 ('Garden of Dreams') 64bit built on Feb  8 2015 13:04:34
Writing library                          : libebml v1.3.1 + libmatroska v1.4.2
DURATION                                 : 02:02:14.955000000
NUMBER_OF_FRAMES                         : 483
NUMBER_OF_BYTES                          : 32675
_STATISTICS_WRITING_APP                  : mkvmerge v7.6.0 ('Garden of Dreams') 64bit built on Feb  8 2015 13:04:34
_STATISTICS_WRITING_DATE_UTC             : 2015-04-30 08:38:21
_STATISTICS_TAGS                         : BPS DURATION NUMBER_OF_FRAMES NUMBER_OF_BYTES
Video
ID                                       : 1
Format                                   : AVC
Format/Info                              : Advanced Video Codec
Format profile                           : High@L4.1
Format settings, CABAC                   : Yes
Format settings, ReFrames                : 9 frames
Codec ID                                 : V_MPEG4/ISO/AVC
Duration                                 : 2h 5mn
Width                                    : 1 200 pixels
Height                                   : 720 pixels
Display aspect ratio                     : 1.667
Frame rate mode                          : Constant
Frame rate                               : 23.976 fps
Color space                              : YUV
Chroma subsampling                       : 4:2:0
Bit depth                                : 8 bits
Scan type                                : Progressive
Writing library                          : x264 core 142 r2491kMod 24e4fed
Encoding settings                        : cabac=1 / ref=9 / deblock=1:-3:-3 / analyse=0x3:0x133 / me=tesa / subme=10 / psy=1 / fade_compensate=0.00 / psy_rd=1.10:0.00 / mixed_ref=1 / me_range=24 / chroma_me=1 / trellis=2 / 8x8dct=1 / cqm=0 / deadzone=21,11 / fast_pskip=1 / chroma_qp_offset=-2 / threads=6 / lookahead_threads=1 / sliced_threads=0 / nr=0 / decimate=0 / interlaced=0 / bluray_compat=0 / constrained_intra=0 / fgo=0 / bframes=9 / b_pyramid=2 / b_adapt=2 / b_bias=0 / direct=3 / weightb=1 / open_gop=0 / weightp=2 / keyint=250 / keyint_min=23 / scenecut=40 / intra_refresh=0 / rc_lookahead=60 / rc=crf / mbtree=0 / crf=18.0000 / qcomp=0.70 / qpmin=0 / qpmax=69 / qpstep=4 / vbv_maxrate=50000 / vbv_bufsize=62500 / crf_max=0.0 / nal_hrd=none / filler=0 / ip_ratio=1.30 / pb_ratio=1.20 / aq=2:0.55
Language                                 : French
Default                                  : Yes
Forced                                   : No
DURATION                                 : 02:05:31.524000000
NUMBER_OF_FRAMES                         : 180576
NUMBER_OF_BYTES                          : 7642301286
_STATISTICS_WRITING_APP                  : mkvmerge v7.6.0 ('Garden of Dreams') 64bit built on Feb  8 2015 13:04:34
_STATISTICS_WRITING_DATE_UTC             : 2015-04-30 08:38:21
_STATISTICS_TAGS                         : BPS DURATION NUMBER_OF_FRAMES NUMBER_OF_BYTES
Audio #1
ID                                       : 2
Format                                   : AC-3
Format/Info                              : Audio Coding 3
Mode extension                           : CM (complete main)
Format settings, Endianness              : Big
Codec ID                                 : A_AC3
Duration                                 : 2h 5mn
Bit rate mode                            : Constant
Bit rate                                 : 384 Kbps
Channel(s)                               : 6 channels
Channel positions                        : Front: L C R, Side: L R, LFE
Sampling rate                            : 48.0 KHz
Bit depth                                : 16 bits
Compression mode                         : Lossy
Stream size                              : 345 MiB (4%)
Title                                    : DVO [Новый Диск R5]
Language                                 : Russian
Default                                  : Yes
Forced                                   : No
Audio #2
ID                                       : 3
Format                                   : AC-3
Format/Info                              : Audio Coding 3
Mode extension                           : CM (complete main)
Format settings, Endianness              : Big
Codec ID                                 : A_AC3
Duration                                 : 2h 5mn
Bit rate mode                            : Constant
Bit rate                                 : 192 Kbps
Channel(s)                               : 2 channels
Channel positions                        : Front: L R
Sampling rate                            : 48.0 KHz
Bit depth                                : 16 bits
Compression mode                         : Lossy
Stream size                              : 173 MiB (2%)
Title                                    : DVO [Юниверсал R5]
Language                                 : Russian
Default                                  : No
Forced                                   : No
Audio #3
ID                                       : 4
Format                                   : AC-3
Format/Info                              : Audio Coding 3
Mode extension                           : CM (complete main)
Format settings, Endianness              : Big
Codec ID                                 : A_AC3
Duration                                 : 2h 5mn
Bit rate mode                            : Constant
Bit rate                                 : 192 Kbps
Channel(s)                               : 2 channels
Channel positions                        : Front: L R
Sampling rate                            : 48.0 KHz
Bit depth                                : 16 bits
Compression mode                         : Lossy
Stream size                              : 173 MiB (2%)
Title                                    : DVO [ОРТ]
Language                                 : Russian
Default                                  : No
Forced                                   : No
Audio #4
ID                                       : 5
Format                                   : AC-3
Format/Info                              : Audio Coding 3
Mode extension                           : CM (complete main)
Format settings, Endianness              : Big
Codec ID                                 : A_AC3
Duration                                 : 2h 5mn
Bit rate mode                            : Constant
Bit rate                                 : 192 Kbps
Channel(s)                               : 2 channels
Channel positions                        : Front: L R
Sampling rate                            : 48.0 KHz
Bit depth                                : 16 bits
Compression mode                         : Lossy
Stream size                              : 173 MiB (2%)
Title                                    : VO [Сергей Козлов]
Language                                 : Russian
Default                                  : No
Forced                                   : No
Audio #5
ID                                       : 6
Format                                   : FLAC
Format/Info                              : Free Lossless Audio Codec
Codec ID                                 : A_FLAC
Duration                                 : 2h 5mn
Bit rate mode                            : Variable
Channel(s)                               : 2 channels
Sampling rate                            : 48.0 KHz
Bit depth                                : 16 bits
Writing library                          : libFLAC 1.2.1 (UTC 2007-09-17)
Language                                 : French
Default                                  : No
Forced                                   : No
Text #1
ID                                       : 7
Format                                   : UTF-8
Codec ID                                 : S_TEXT/UTF8
Codec ID/Info                            : UTF-8 Plain Text
Language                                 : English
Default                                  : No
Forced                                   : No
Text #2
ID                                       : 8
Format                                   : UTF-8
Codec ID                                 : S_TEXT/UTF8
Codec ID/Info                            : UTF-8 Plain Text
Language                                 : Russian
Default                                  : No
Forced                                   : No



Показать сообщения:    

Текущее время: 09-Дек 14:42

Часовой пояс: UTC + 3


Вы не можете начинать темы
Вы не можете отвечать на сообщения
Вы не можете редактировать свои сообщения
Вы не можете удалять свои сообщения
Вы не можете голосовать в опросах
Вы не можете прикреплять файлы к сообщениям
Вы не можете скачивать файлы