Отчаяние / Despair / Eine Reise ins Licht (Райнер Вернер Фассбиндер / Rainer Werner Fassbinder) [1978 г., Германия (ФРГ), Франция, драма, BDRip 720p] 2x DVO + Original Eng + Sub Eng


 

[Цитировать]

Отчаяние / Despair- Год выпуска: 1978
Страна: Германия (ФРГ), Франция
Жанр: драма
Продолжительность: 02:01:14
Перевод: Профессиональный (двухголосый закадровый)
Перевод 2: Профессиональный (двухголосый закадровый) СВ-Дубль
Оригинальная аудиодорожка: Английская
Cубтитры: Английские (depositio)-Режиссер: Райнер Вернер Фассбиндер / Rainer Werner Fassbinder
В ролях: Дирк Богард, Андреа Ферреоль, Клаус Лёвич, Фолькер Шпенглер, Армин Майер, Петер Керн, Адриан Ховен, Александр Аллерсон, Харк Бом, Рогер Фриц-Описание:
По одноименному роману Владимира Набокова.
Герман, русский эмигрант, владеет в Берлине начала 30-х годов небольшой шоколадной фабрикой. Он женат на Лидии, чуть глуповатой толстушке, а та поддерживает отношения со своим кузеном Ардалионом, вечно пьяным художником, у которого никогда не бывает денег. Герману кажется, что за ним наблюдает двойник, который преследует его на каждом шагу, особенно когда он занимается любовью со своей женой. Однажды он знакомится с безработным актером Феликсом Вебером, которого принимает за своего двойника, и пытается навязать тому свой план: они должы поменяться ролями.-За дорожку №1 спасибо MinimalBoy.
| IMDb | Сэмпл-Качество: BDRip 720p (Slappy)
Контейнер: MKV
Видео: x264, 1196x720 (1.66:1), 23.976 fps, 10815 kbps
Аудио 1: Русский AС3, 2.0, 48 kHz, 192 kbps – DVO
Аудио 2: Русский AС3, 2.0, 48 kHz, 192 kbps – СВ-Дубль
Аудио 3: Английский FLAC 2.0, 48 kHz, 464 kbps
Формат субтитров: softsub (SRT)

Скриншоты

Source (iFPD), EA (Internal) vs. New: Slappy, Source (insinuendo)


MInfo

RELEASE INFO:
RELEASE NAME..........: Despair 1978 720p BluRay FLAC 2.0 x264-Slappy
ENCODED DATE.........: UTC 4/8/2015 1:52:21 AM
RUNTIME.................: 2h 01mn
RELEASE SIZE...........: 9.55 GiB
VIDEO CODEC...........: x264, High@L4.1
FRAMERATE..............: 23.976 fps
BITRATE...................: 10.6 Mbps
RESOLUTION.............: 1196x720 (AR: 1.661)
AUDIO.....................: FLAC 2.0
CHAPTERS................: Yes
CHAPTERS NAMED......: Yes
SUBTITLES...............: Yes
SOURCE...................: 1080p Blu-ray AVC DTS-HD MA 2.0-insinuendo
Encoder....................: SlappyTime
Log Info
frame I:913 Avg QP:14.86 size:123138
frame P:32500 Avg QP:15.80 size: 76851
frame B:140972 Avg QP:16.59 size: 51235
consecutive B-frames: 0.7% 0.5% 2.8% 11.7% 16.1% 59.3% 6.2% 1.3% 1.3%
encoded 174385 frames, 3.69 fps, 10815.14 kb/s
General
Unique ID : 191140515079587711234366411799564833699 (0x8FCC52FC00629618B889EEADF55AD3A3)
Complete name : Despair.1978.720p.BluRay.x264-Slappy.mkv
Format : Matroska
Format version : Version 2
File size : 9.88 GiB
Duration : 2h 1mn
Overall bit rate mode : Variable
Overall bit rate : 11.7 Mbps
Movie name : Despair / Отчаяние (1978) – RuTracker
Encoded date : UTC 2015-04-25 11:02:00
Writing application : mkvmerge v7.5.0 ('Glass Culture') 64bit built on Jan 4 2015 16:48:44
Writing library : libebml v1.3.1 + libmatroska v1.4.2
Attachements : cover.jpg
Video
ID : 1
Format : AVC
Format/Info : Advanced Video Codec
Format profile : High@L4.1
Format settings, CABAC : Yes
Format settings, ReFrames : 9 frames
Codec ID : V_MPEG4/ISO/AVC
Duration : 2h 1mn
Width : 1 196 pixels
Height : 720 pixels
Display aspect ratio : 1.661
Frame rate mode : Constant
Frame rate : 23.976 fps
Color space : YUV
Chroma subsampling : 4:2:0
Bit depth : 8 bits
Scan type : Progressive
Title : Despair.1978.720p.BluRay.FLAC.2.0.x264-Slappy
Writing library : x264 core 142 r2431 ac76440
Encoding settings : cabac=1 / ref=9 / deblock=1:-3:-3 / analyse=0x3:0x113 / me=umh / subme=10 / psy=1 / psy_rd=1.10:0.10 / mixed_ref=1 / me_range=64 / chroma_me=1 / trellis=2 / 8x8dct=1 / cqm=0 / deadzone=21,11 / fast_pskip=0 / chroma_qp_offset=0 / threads=9 / lookahead_threads=1 / sliced_threads=0 / nr=0 / decimate=1 / interlaced=0 / bluray_compat=0 / constrained_intra=0 / bframes=8 / b_pyramid=2 / b_adapt=2 / b_bias=0 / direct=3 / weightb=1 / open_gop=0 / weightp=2 / keyint=240 / keyint_min=23 / scenecut=40 / intra_refresh=0 / rc_lookahead=40 / rc=crf / mbtree=0 / crf=16.4 / qcomp=0.85 / qpmin=0 / qpmax=69 / qpstep=4 / vbv_maxrate=62500 / vbv_bufsize=78125 / crf_max=0.0 / nal_hrd=none / filler=0 / ip_ratio=1.20 / pb_ratio=1.10 / aq=2:0.55
Language : English
Default : Yes
Forced : No
Audio #1
ID : 2
Format : AC-3
Format/Info : Audio Coding 3
Mode extension : CM (complete main)
Format settings, Endianness : Big
Codec ID : A_AC3
Duration : 2h 1mn
Bit rate mode : Constant
Bit rate : 192 Kbps
Channel(s) : 2 channels
Channel positions : Front: L R
Sampling rate : 48.0 KHz
Bit depth : 16 bits
Compression mode : Lossy
Stream size : 166 MiB (2%)
Title : DVO
Language : Russian
Default : Yes
Forced : No
Audio #2
ID : 3
Format : AC-3
Format/Info : Audio Coding 3
Mode extension : CM (complete main)
Format settings, Endianness : Big
Codec ID : A_AC3
Duration : 2h 1mn
Bit rate mode : Constant
Bit rate : 192 Kbps
Channel(s) : 2 channels
Channel positions : Front: L R
Sampling rate : 48.0 KHz
Bit depth : 16 bits
Compression mode : Lossy
Stream size : 166 MiB (2%)
Title : DVO – СВ-Дубль
Language : Russian
Default : No
Forced : No
Audio #3
ID : 4
Format : FLAC
Format/Info : Free Lossless Audio Codec
Codec ID : A_FLAC
Duration : 2h 1mn
Bit rate mode : Variable
Channel(s) : 2 channels
Sampling rate : 48.0 KHz
Bit depth : 16 bits
Title : Original
Writing library : libFLAC 1.2.1 (UTC 2007-09-17)
Language : English
Default : No
Forced : No
Text
ID : 5
Format : UTF-8
Codec ID : S_TEXT/UTF8
Codec ID/Info : UTF-8 Plain Text
Title : depositio
Language : English
Default : No
Forced : No
Menu
00:00:00.000 : en:1. Opening
00:08:41.521 : en:2. The Chocolate Factory
00:32:05.006 : en:3. Doppelganger
00:45:10.499 : en:4. The Plan
01:04:33.536 : en:5. The Painting
01:19:08.994 : en:6. Brothers
01:36:14.769 : en:7. Confusion
01:45:05.424 : en:8. A Fugitive



Показать сообщения:    

Текущее время: 03-Дек 18:38

Часовой пояс: UTC + 3


Вы не можете начинать темы
Вы не можете отвечать на сообщения
Вы не можете редактировать свои сообщения
Вы не можете удалять свои сообщения
Вы не можете голосовать в опросах
Вы не можете прикреплять файлы к сообщениям
Вы не можете скачивать файлы