Тото-герой / Toto le héros (Жако Ван Дормель / Jaco van Dormael) [1991, Германия, Франция, Бельгия, драма, HDTV 1080i] VO (неизвестный) + Sub Rus, Eng + Original Fre


 

[Цитировать]

Тото-герой / Toto le héros
Страна: Германия, Франция, Бельгия
Жанр: драма
Год выпуска: 1991
Продолжительность: 01:27:30
Перевод: Одноголосый закадровый - неизвестный
Cубтитры: русские, английские
Оригинальная аудиодорожка: французский
Режиссер: Жако Ван Дормель / Jaco van Dormael
В ролях: Мишель Буке, Джо Де Бэкер, Томас Годе, Гизела Улен, Мирей Перье, Sandrine Blancke, Peter Böhlke, Didier Ferney, Хьюго Харольд Харрисон, Fabienne Loriaux
Описание: В горящем родильном отделении больницы мечется мать, не знающая точно, кто ее ребенок. Она тянет руки к одному, но кричит младенец рядом, и она спасает из огня его. А главный герой фильма Тома утверждает, что помнит этот пожар и языки пламени, он уверен, что его тогда перепутали с соседским мальчиком Альбером. Тото считает себя неудачником именно потому, что его перепутали в роддоме, а он хотел стать героем, секретным агентом.
Сэмпл: https://yadi.sk/i/gwdZgNDBg76Yg
Тип релиза: HDTV 1080i
Контейнер: MKV
Видео: 1920x1080 (16:9), 25 fps, MPEG-4 AVC, 8273 Kbps
Аудио 1: Russian: 48 kHz, AC3, 2 ch, 192 kbps |Неизвестный|
Аудио 2: French: 48 kHz, AC3, 2 ch, 256 kbps
Формат субтитров: softsub (SRT)

MediaInfo

General
Format : Matroska
Format version : Version 4 / Version 2
File size : 5.44 GiB
Duration : 1h 27mn
Overall bit rate : 8 898 Kbps
Encoded date : UTC 2015-04-20 07:12:29
Writing application : mkvmerge v7.8.0 ('River Man') 64bit built on Mar 27 2015 16:31:37
Writing library : libebml v1.3.1 + libmatroska v1.4.2
DURATION : 01:23:56.091000000
NUMBER_OF_FRAMES : 618
NUMBER_OF_BYTES : 29301
_STATISTICS_WRITING_APP : mkvmerge v7.8.0 ('River Man') 64bit built on Mar 27 2015 16:31:37
_STATISTICS_WRITING_DATE_UTC : 2015-04-20 07:12:29
_STATISTICS_TAGS : BPS DURATION NUMBER_OF_FRAMES NUMBER_OF_BYTES
Video
ID : 1
Format : AVC
Format/Info : Advanced Video Codec
Format profile : High@L4.0
Format settings, CABAC : Yes
Format settings, ReFrames : 4 frames
Format settings, GOP : M=8, N=32
Codec ID : V_MPEG4/ISO/AVC
Duration : 1h 27mn
Bit rate : 8 273 Kbps
Width : 1 920 pixels
Height : 1 080 pixels
Display aspect ratio : 16:9
Frame rate mode : Constant
Frame rate : 25.000 fps
Color space : YUV
Chroma subsampling : 4:2:0
Bit depth : 8 bits
Scan type : MBAFF
Scan order : Top Field First
Bits/(Pixel*Frame) : 0.160
Stream size : 5.06 GiB (93%)
Default : Yes
Forced : No
Color primaries : BT.709
Transfer characteristics : BT.709
Matrix coefficients : BT.709
Color range : Limited
DURATION : 01:25:34.800000000
NUMBER_OF_FRAMES : 139460
NUMBER_OF_BYTES : 5548272816
_STATISTICS_WRITING_APP : mkvmerge v7.8.0 ('River Man') 64bit built on Mar 27 2015 16:31:37
_STATISTICS_WRITING_DATE_UTC : 2015-04-20 07:12:29
_STATISTICS_TAGS : BPS DURATION NUMBER_OF_FRAMES NUMBER_OF_BYTES
Audio #1
ID : 2
Format : AC-3
Format/Info : Audio Coding 3
Mode extension : CM (complete main)
Format settings, Endianness : Big
Codec ID : A_AC3
Duration : 1h 27mn
Bit rate mode : Constant
Bit rate : 192 Kbps
Channel(s) : 2 channels
Channel positions : Front: L R
Sampling rate : 48.0 KHz
Bit depth : 16 bits
Compression mode : Lossy
Stream size : 120 MiB (2%)
Title : Неизвестный
Language : Russian
Default : Yes
Forced : No
Audio #2
ID : 3
Format : AC-3
Format/Info : Audio Coding 3
Mode extension : CM (complete main)
Format settings, Endianness : Big
Codec ID : A_AC3
Duration : 1h 27mn
Bit rate mode : Constant
Bit rate : 256 Kbps
Channel(s) : 2 channels
Channel positions : Front: L R
Sampling rate : 48.0 KHz
Bit depth : 16 bits
Compression mode : Lossy
Stream size : 160 MiB (3%)
Language : French
Default : No
Forced : No
Text #1
ID : 4
Format : UTF-8
Codec ID : S_TEXT/UTF8
Codec ID/Info : UTF-8 Plain Text
Language : Russian
Default : Yes
Forced : No
Text #2
ID : 5
Format : UTF-8
Codec ID : S_TEXT/UTF8
Codec ID/Info : UTF-8 Plain Text
Language : English
Default : No
Forced : No

Скриншоты




Показать сообщения:    

Текущее время: 11-Дек 11:05

Часовой пояс: UTC + 3


Вы не можете начинать темы
Вы не можете отвечать на сообщения
Вы не можете редактировать свои сообщения
Вы не можете удалять свои сообщения
Вы не можете голосовать в опросах
Вы не можете прикреплять файлы к сообщениям
Вы не можете скачивать файлы