Разомкнутый круг / The Broken Circle Breakdown (Феликс Ван Гроенгинен / Felix Van Groeningen) [2012 г., Бельгия, Нидерланды, драма, мелодрама, музыка, BDRip 720p] DVO (R5) + VO (Andi) + Ukr + Original Dut + Sub (Rus, Eng)


 

[Цитировать]

-Разомкнутый круг / The Broken Circle Breakdown Страна: Бельгия, Нидерланды
Студия: Menuet Producties, Topkapi Films
Жанр: Драма, мелодрама, музыка
Год выпуска: 2012
Продолжительность: 01:51:36-Перевод 1: Профессиональный (двухголосый, закадровый) R5
Перевод 2: Одноголосый, закадровый Andi
Оригинальная аудиодорожка: нидерландская
Cубтитры: русские, английские
Режиссер: Феликс Ван Гроенгинен / Felix Van Groeningen
В ролях: Йохан Хелденберг, Верле Батенс, Нелл Каттриссе, Герт Ван Рампелберг, Нилс Де Кастер, Робби Клейрен, Берт Хейсентрейт, Ян Бейвут, Софи Сенте, Рут Бекманс
Описание: Дидье играет в группе на банджо, живет в трейлере в бельгийской деревне и боготворит Америку как «землю свободы». Элис — владеет тату-салоном. Однажды они влюбляются с первого взгляда.-
Сэмпл: скачать-Релиз от -
Автор рипа: Elheym
Качество: BDRip 720p (источник: / Blu-ray DUT [BROKEN_CIRCLE_BLUEBIRD] / 1080p)
Контейнер: MKV
Видео: 1280x544 (2.35:1), 24.0 fps, MPEG-4 AVC, ~4000 kbps avg, 0.239 bit/pixel
Аудио #1: Русский: AC3, 5.1, 48 kHz, ~384 Кбит/с | Профессиональный (двухголосый, закадровый) R5 |
Аудио #2: Русский: AC3, 5.1, 48 kHz, ~448 Кбит/с | Любительский (одноголосый, закадровый) Andi |
Аудио #3: Украинский: АС3, 5.1, 48 kHz, ~448 Кбит/с | Профессиональный (многоголосый, закадровый) Цікава ідея |
Аудио #4: Нидерландский: DTS, 5.1, 48 kHz, ~1509 Кбит/с | Оригинал |
Субтитры: русские (полные, форсированные [на песни]), английские (полные)
Главы: Присутствуют, сохранены оригинальные

MediaInfo

Уникальный идентификатор : 242980109924862131273431208161590789892 (0xB6CC445774D974FD912DC77EFB624704)
Полное имя : The.Broken.Circle.Breakdown.2012.720p.BluRay.2xRus.Ukr.Dut.-HQCLUB.mkv
Формат : Matroska
Версия формата : Version 2
Размер файла : 5,29 Гбайт
Продолжительность : 1 ч. 51 м.
Общий поток : 6785 Кбит/сек
Дата кодирования : UTC 2015-04-17 10:40:54
Программа кодирования : mkvmerge v5.2.0 ('I can't explain') built on Dec 18 2011 18:12:03
Библиотека кодирования : libebml v1.2.3 + libmatroska v1.3.0
Attachements : Cover.png
Видео
Идентификатор : 1
Формат : AVC
Формат/Информация : Advanced Video Codec
Профиль формата : High@L4.1
Параметр CABAC формата : Да
Параметр ReFrames формата : 11 кадров
Идентификатор кодека : V_MPEG4/ISO/AVC
Продолжительность : 1 ч. 51 м.
Битрейт : 4000 Кбит/сек
Ширина : 1280 пикселей
Высота : 544 пикселя
Соотношение сторон : 2,35:1
Режим частоты кадров : Постоянный
Частота кадров : 24,000 кадра/сек
Цветовое пространство : YUV
Субдискретизация насыщенности : 4:2:0
Битовая глубина : 8 бит
Тип развёртки : Прогрессивная
Бит/(Пиксели*Кадры) : 0.239
Размер потока : 3,01 Гбайт (57%)
Заголовок : Разомкнутый круг / The Broken Circle Breakdown (2012) BDRip 720p by HQCLUB [Elheym]
Библиотека кодирования : x264 core 146 r2538kMod 121396c
Настройки программы : cabac=1 / ref=11 / deblock=1:-2:-1 / analyse=0x3:0x113 / me=umh / subme=11 / psy=1 / fade_compensate=0.00 / psy_rd=1.16:0.00 / mixed_ref=1 / me_range=32 / chroma_me=1 / trellis=2 / 8x8dct=1 / cqm=0 / deadzone=21,11 / fast_pskip=0 / chroma_qp_offset=-2 / threads=6 / lookahead_threads=1 / sliced_threads=0 / nr=0 / decimate=1 / interlaced=0 / bluray_compat=0 / constrained_intra=0 / fgo=0 / bframes=16 / b_pyramid=2 / b_adapt=2 / b_bias=0 / direct=3 / weightb=1 / open_gop=0 / weightp=2 / keyint=230 / keyint_min=23 / scenecut=40 / intra_refresh=0 / rc_lookahead=40 / rc=2pass / mbtree=0 / bitrate=4000 / ratetol=1.0 / qcomp=0.80 / qpmin=0 / qpmax=69 / qpstep=4 / cplxblur=20.0 / qblur=0.5 / vbv_maxrate=50000 / vbv_bufsize=62500 / nal_hrd=none / filler=0 / ip_ratio=1.40 / pb_ratio=1.30 / aq=2:0.67
Язык : Dutch
Default : Да
Forced : Нет
Аудио #1
Идентификатор : 2
Формат : AC-3
Формат/Информация : Audio Coding 3
Расширение режима : CM (complete main)
Параметр Endianness формата : Big
Идентификатор кодека : A_AC3
Продолжительность : 1 ч. 51 м.
Вид битрейта : Постоянный
Битрейт : 384 Кбит/сек
Каналы : 6 каналов
Расположение каналов : Front: L C R, Side: L R, LFE
Частота : 48,0 КГц
Битовая глубина : 16 бит
Метод сжатия : С потерями
Размер потока : 307 Мбайт (6%)
Заголовок : АС3 5.1 @ 384 kbps - DVO, R5
Язык : Russian
Default : Нет
Forced : Нет
Аудио #2
Идентификатор : 3
Формат : AC-3
Формат/Информация : Audio Coding 3
Расширение режима : CM (complete main)
Параметр Endianness формата : Big
Идентификатор кодека : A_AC3
Продолжительность : 1 ч. 51 м.
Вид битрейта : Постоянный
Битрейт : 448 Кбит/сек
Каналы : 6 каналов
Расположение каналов : Front: L C R, Side: L R, LFE
Частота : 48,0 КГц
Битовая глубина : 16 бит
Метод сжатия : С потерями
Размер потока : 358 Мбайт (7%)
Заголовок : АС3 5.1 @ 448 kbps - VO, Andi
Язык : Russian
Default : Нет
Forced : Нет
Аудио #3
Идентификатор : 4
Формат : AC-3
Формат/Информация : Audio Coding 3
Расширение режима : CM (complete main)
Параметр Endianness формата : Big
Идентификатор кодека : A_AC3
Продолжительность : 1 ч. 51 м.
Вид битрейта : Постоянный
Битрейт : 448 Кбит/сек
Каналы : 6 каналов
Расположение каналов : Front: L C R, Side: L R, LFE
Частота : 48,0 КГц
Битовая глубина : 16 бит
Метод сжатия : С потерями
Размер потока : 358 Мбайт (7%)
Заголовок : АС3 5.1 @ 448 kbps - MVO, Cіkava іdeja
Язык : Ukrainian
Default : Нет
Forced : Нет
Аудио #4
Идентификатор : 5
Формат : DTS
Формат/Информация : Digital Theater Systems
Режим : 16
Параметр Endianness формата : Big
Идентификатор кодека : A_DTS
Продолжительность : 1 ч. 51 м.
Вид битрейта : Постоянный
Битрейт : 1509 Кбит/сек
Каналы : 6 каналов
Расположение каналов : Front: L C R, Side: L R, LFE
Частота : 48,0 КГц
Битовая глубина : 24 бит
Метод сжатия : С потерями
Размер потока : 1,18 Гбайт (22%)
Заголовок : DTS 5.1 @ 1509 kbps - Original
Язык : Dutch
Default : Нет
Forced : Нет
Текст #1
Идентификатор : 6
Формат : UTF-8
Идентификатор кодека : S_TEXT/UTF8
Идентификатор кодека/Информация : UTF-8 Plain Text
Заголовок : Full
Язык : Russian
Default : Нет
Forced : Нет
Текст #2
Идентификатор : 7
Формат : UTF-8
Идентификатор кодека : S_TEXT/UTF8
Идентификатор кодека/Информация : UTF-8 Plain Text
Заголовок : Forced [MountinFOX]
Язык : Russian
Default : Да
Forced : Нет
Текст #3
Идентификатор : 8
Формат : UTF-8
Идентификатор кодека : S_TEXT/UTF8
Идентификатор кодека/Информация : UTF-8 Plain Text
Заголовок : Full
Язык : English
Default : Нет
Forced : Нет
Меню
00:00:00.000 : :Chapter 01
00:12:06.291 : :Chapter 02
00:21:00.666 : :Chapter 03
00:30:23.541 : :Chapter 04
00:38:17.875 : :Chapter 05
00:47:24.250 : :Chapter 06
00:57:40.541 : :Chapter 07
01:06:09.583 : :Chapter 08
01:16:51.541 : :Chapter 09
01:24:06.541 : :Chapter 10
01:33:29.583 : :Chapter 11
01:43:39.083 : :Chapter 12
01:51:36.833 : :Chapter 13

x264 log

x264 [info]: frame I:954 Avg QP:10.88 size:102070
x264 [info]: frame P:36950 Avg QP:13.02 size: 38962
x264 [info]: frame B:122797 Avg QP:15.26 size: 14698
x264 [info]: consecutive B-frames: 2.8% 4.9% 9.1% 17.9% 18.7% 34.6% 5.3% 1.5% 1.4% 0.5% 0.6% 0.3% 0.4% 0.2% 0.3% 0.3% 1.3%
x264 [info]: ref P L0: 44.9% 7.2% 19.2% 7.4% 6.0% 4.1% 3.7% 2.1% 2.0% 1.6% 1.6% 0.3% 0.0%
x264 [info]: ref B L0: 70.9% 13.1% 5.9% 3.1% 2.1% 1.7% 1.3% 0.9% 0.5% 0.2%
x264 [info]: ref B L1: 92.1% 7.9%

Скриншоты

Сравнения с исходником

Источник- -Рип-



Показать сообщения:    

Текущее время: 09-Дек 08:51

Часовой пояс: UTC + 3


Вы не можете начинать темы
Вы не можете отвечать на сообщения
Вы не можете редактировать свои сообщения
Вы не можете удалять свои сообщения
Вы не можете голосовать в опросах
Вы не можете прикреплять файлы к сообщениям
Вы не можете скачивать файлы