Все будет хорошо / Торэ танцует / Ничего плохого случиться не может / Tore Tanzt / Nothing Bad Can Happen (Катрин Геббе / Katrin Gebbe) [2013, Германия, драма, триллер, BDRip 1080p] MVO + Sub Rus, Eng + Original Ger


 

[Цитировать]

Торэ Танцует / Ничего Плохого Случиться Не Может / Всё Будет Хорошо
Tore Tanzt / Nothing Bad Can Happen
Страна: Германия
Жанр: драма, триллер
Год выпуска: 2013
Продолжительность: 01:47:56
Перевод: Любительский (многоголосый закадровый) studio F666R
Озвучили: Глеб Росс, Лея Лейман, Fi.Re.13
Cубтитры: русские Chick_Guevara, английские
Оригинальная аудиодорожка: немецкий
Режиссер: Катрин Геббе / Katrin Gebbe
В ролях: Джулиус Фельдмайер, Саша Александр Гершак, Анника Кул, Уве Даг Берлин, Тиль-Никлас Тейнерт, Надине Боске, Кристиан Бергманн, Дэниэл Мишель
Описание:
Торэ принадлежит к христианскому панк-движению Jesus FreakS, бунтующему против религиозных порядков, но следующему учению Иисуса о любви. Однажды Торэ чудесным образом помогает завести заглохшую машину и знакомится с ее хозяином — Бенно. Он раскидывает палатку в саду у нового друга и становится практически членом его семьи. Но Бенно не может удержаться от искушения поколебать убеждения Торэ и сбить его с истинного пути...
СЭМПЛ
Тип релиза: BDRip 1080p
Контейнер: MKV
Видео: AVC, 8640 Кбит/с, 1920x816 (2,35:1), 23,976 кадра/с
Аудио 1: MP3, 256 Кбит/с, стерео, 48 КГц | Русский
Аудио 2: DTS, 1509 Кбит/с (6 каналов), 48 КГц, 24 бит | German

MediaInfo

Общее
Уникальный идентификатор : 213977634234583830012060808069947051757 (0xA0FA97E3D45AC1F2B938E903EB1BCEED)
Полное имя : Всё Будет Хорошо (Katrin Gebbe, 2013).mkv
Формат : Matroska
Версия формата : Version 4 / Version 2
Размер файла : 7,84 Гбайт
Продолжительность : 1 ч. 47 м.
Общий поток : 10,4 Мбит/сек
Дата кодирования : UTC 2015-04-15 10:15:00
Программа кодирования : mkvmerge v7.2.0 ('On Every Street') 64bit built on Sep 13 2014 15:52:10
Библиотека кодирования : libebml v1.3.0 + libmatroska v1.4.1
Видео
Идентификатор : 1
Формат : AVC
Формат/Информация : Advanced Video Codec
Профиль формата : High@L4.1
Параметр CABAC формата : Да
Параметр ReFrames формата : 5 кадров
Идентификатор кодека : V_MPEG4/ISO/AVC
Продолжительность : 1 ч. 47 м.
Битрейт : 8640 Кбит/сек
Ширина : 1920 пикселей
Высота : 816 пикселей
Соотношение сторон : 2,35:1
Режим частоты кадров : Постоянный
Частота кадров : 23,976 кадра/сек
Цветовое пространство : YUV
Субдискретизация насыщенности : 4:2:0
Битовая глубина : 8 бит
Тип развёртки : Прогрессивная
Бит/(Пиксели*Кадры) : 0.230
Размер потока : 6,36 Гбайт (81%)
Библиотека кодирования : x264 core 146 r2538 121396c
Настройки программы : cabac=1 / ref=5 / deblock=1:0:0 / analyse=0x3:0x133 / me=umh / subme=7 / psy=1 / psy_rd=1.00:0.00 / mixed_ref=1 / me_range=16 / chroma_me=1 / trellis=1 / 8x8dct=1 / cqm=0 / deadzone=21,11 / fast_pskip=0 / chroma_qp_offset=-2 / threads=60 / lookahead_threads=6 / sliced_threads=0 / nr=0 / decimate=1 / interlaced=0 / bluray_compat=0 / constrained_intra=0 / bframes=3 / b_pyramid=2 / b_adapt=2 / b_bias=0 / direct=3 / weightb=1 / open_gop=0 / weightp=2 / keyint=250 / keyint_min=23 / scenecut=40 / intra_refresh=0 / rc_lookahead=50 / rc=2pass / mbtree=1 / bitrate=8640 / ratetol=1.0 / qcomp=0.60 / qpmin=0 / qpmax=69 / qpstep=4 / cplxblur=20.0 / qblur=0.5 / ip_ratio=1.40 / aq=1:1.00
Язык : English
Default : Да
Forced : Нет
Аудио #1
Идентификатор : 2
Формат : MPEG Audio
Версия формата : Version 1
Профиль формата : Layer 3
Режим : Joint stereo
Идентификатор кодека : A_MPEG/L3
Идентификатор кодека/Подсказка : MP3
Продолжительность : 1 ч. 47 м.
Вид битрейта : Постоянный
Битрейт : 256 Кбит/сек
Каналы : 2 канала
Частота : 48,0 КГц
Метод сжатия : С потерями
Размер потока : 198 Мбайт (2%)
Заголовок : MVO studio F666R
Язык : Russian
Default : Да
Forced : Нет
Аудио #2
Идентификатор : 3
Формат : DTS
Формат/Информация : Digital Theater Systems
Режим : 16
Параметр Endianness формата : Big
Идентификатор кодека : A_DTS
Продолжительность : 1 ч. 47 м.
Вид битрейта : Постоянный
Битрейт : 1509 Кбит/сек
Каналы : 6 каналов
Расположение каналов : Front: L C R, Side: L R, LFE
Частота : 48,0 КГц
Битовая глубина : 24 бит
Метод сжатия : С потерями
Размер потока : 1,14 Гбайт (15%)
Заголовок : German
Язык : German
Default : Нет
Forced : Нет
Текст #1
Идентификатор : 4
Формат : UTF-8
Идентификатор кодека : S_TEXT/UTF8
Идентификатор кодека/Информация : UTF-8 Plain Text
Заголовок : Chick_Guevara
Язык : Russian
Default : Нет
Forced : Нет
Текст #2
Идентификатор : 5
Формат : UTF-8
Идентификатор кодека : S_TEXT/UTF8
Идентификатор кодека/Информация : UTF-8 Plain Text
Язык : English
Default : Нет
Forced : Нет
Меню
00:00:00.000 : en:00:00:00.000
00:13:50.288 : en:00:13:50.288
00:20:09.041 : en:00:20:09.041
00:29:56.086 : en:00:29:56.086
00:40:10.366 : en:00:40:10.366
00:49:48.611 : en:00:49:48.611
00:59:38.408 : en:00:59:38.408
01:07:50.775 : en:01:07:50.775
01:15:24.687 : en:01:15:24.687
01:21:47.736 : en:01:21:47.736
01:37:42.023 : en:01:37:42.023
01:46:50.029 : en:01:46:50.029

Скриншоты




Показать сообщения:    

Текущее время: 04-Дек 21:22

Часовой пояс: UTC + 3


Вы не можете начинать темы
Вы не можете отвечать на сообщения
Вы не можете редактировать свои сообщения
Вы не можете удалять свои сообщения
Вы не можете голосовать в опросах
Вы не можете прикреплять файлы к сообщениям
Вы не можете скачивать файлы