Джимми Пикард / Jimmy P. (Арно Деплешен / Arnaud Desplechin) [2013, США, Франция, драма, BDRip 720p] Original Eng + Sub Rus


 

[Цитировать]

Джимми Пикард / Jimmy P.
Страна: США, Франция
Студия: Why Not Productions, Wild Bunch, Orange Studio, France 2 Cinema, Herodiade, Le Pacte
Жанр: Драма
Год выпуска: 2013
Продолжительность: 1:56:55
Перевод: Субтитры (Playball)
Cубтитры: русские
Оригинальная аудиодорожка: английский
Режиссер: Арно Деплешен / Arnaud Desplechin
В ролях: Бенисио Дель Торо / Benicio Del Toro, Матьё Амальрик / Mathieu Amalric, Джина МакКи / Gina McKee, Мишель Траш / Michelle Thrush, Джозеф Кросс / Joseph Cross, Илья Баскин / Ilya Baskin, Эй Мартинез / A Martinez и др.
Описание: Фильм рассказывает о Джимми Пикарде (Бенисио Дель Торо) — индейце, которого после возвращения с фронта Второй Мировой войны начинают беспокоить психосоматические заболевания. Он направляется в госпиталь в Топику, штат Канзас, где знакомится с французским этнопсихиатром Жоржем Деврё (Матье Амальрик). Далее сюжет фильма строится вокруг профессиональных и дружеских отношений между мужчинами.
Доп. информация: Фильм снят на основе исследователской работы психоаналитика Жоржа Деврё «Психотерапия индейца равнин» (1951).
Фильм-участник основной конкурсной программы Каннского фестиваля 2013.
Сэмпл: http://multi-up.com/1043949
Тип релиза: BDRip 720p
Контейнер: MKV
Видео: AVC, 1280*544 (2,35:1), 5179 Кбит/сек, 23,976 кадра/сек
Аудио: DTS, English, 1509 Кбит/сек, 6 каналов
Формат субтитров: softsub (SRT)

Пример субтитров

1
00:00:19,645 --> 00:00:23,940
Основано на реальных событиях.
2
00:00:58,370 --> 00:00:59,870
Джимми!
3
00:01:02,532 --> 00:01:03,596
Братик!
4
00:01:05,644 --> 00:01:07,044
Джимми!
5
00:01:10,320 --> 00:01:11,988
Братик, просыпайся.
6
00:01:12,340 --> 00:01:13,640
Вставай.
7
00:01:14,958 --> 00:01:16,258
Ну же.
8
00:01:16,660 --> 00:01:18,411
Пора вставать.
9
00:01:26,628 --> 00:01:28,217
Еще болит?
10
00:02:15,928 --> 00:02:17,303
Негритяночки.
11
00:02:28,628 --> 00:02:29,928
12
00:02:46,734 --> 00:02:49,049
- Направляешься в город?
- Нет.
13
00:02:49,084 --> 00:02:52,334
Коровы сломали забор.
Надо починить.
14
00:02:52,714 --> 00:02:55,350
- Хочешь - уступлю тебе лошадь?
- Нет.
15
00:02:55,843 --> 00:02:57,143
Уверен?
16
00:04:04,953 --> 00:04:06,787
Боль вернулась.
17
00:04:07,956 --> 00:04:11,042
Вот билеты: мой и брата.
18
00:04:11,043 --> 00:04:15,321
Нам выдало командование.
Доверенность тоже есть.
19
00:05:11,003 --> 00:05:12,520
Сейчас пройдет.
20
00:05:25,216 --> 00:05:30,136
Топика, Канзас.

MediaInfo

General
Unique ID : 177363690786765398275187057719788360325 (0x856F011AAD9E64A6AA4B6C5726A6D285)
Complete name : D:\КИНО\Jimmy.P.2013.720p.BluRay.x264-CiNEFiLE [PublicHD]\jimmy.p.2013.720p.bluray.x264-cinefile (2).mkv
Format : Matroska
Format version : Version 2
File size : 5.46 GiB
Duration : 1h 56mn
Overall bit rate : 6 687 Kbps
Encoded date : UTC 2015-04-15 16:43:46
Writing application : mkvmerge v5.8.0 ('No Sleep / Pillow') built on Sep 2 2012 15:37:04
Writing library : libebml v1.2.3 + libmatroska v1.3.0
Video
ID : 1
Format : AVC
Format/Info : Advanced Video Codec
Format profile : High@L3.1
Format settings, CABAC : Yes
Format settings, ReFrames : 5 frames
Codec ID : V_MPEG4/ISO/AVC
Duration : 1h 56mn
Bit rate : 5 179 Kbps
Width : 1 280 pixels
Height : 544 pixels
Display aspect ratio : 2.35:1
Frame rate mode : Constant
Frame rate : 23.976 fps
Color space : YUV
Chroma subsampling : 4:2:0
Bit depth : 8 bits
Scan type : Progressive
Bits/(Pixel*Frame) : 0.310
Stream size : 4.12 GiB (75%)
Writing library : x264 core 140 r2377 1ca7bb9
Encoding settings : cabac=1 / ref=5 / deblock=1:0:0 / analyse=0x3:0x133 / me=umh / subme=8 / psy=1 / psy_rd=1.00:0.00 / mixed_ref=1 / me_range=16 / chroma_me=1 / trellis=1 / 8x8dct=1 / cqm=0 / deadzone=21,11 / fast_pskip=0 / chroma_qp_offset=-2 / threads=18 / lookahead_threads=3 / sliced_threads=0 / nr=0 / decimate=1 / interlaced=0 / bluray_compat=0 / constrained_intra=0 / bframes=3 / b_pyramid=2 / b_adapt=2 / b_bias=0 / direct=3 / weightb=1 / open_gop=0 / weightp=2 / keyint=250 / keyint_min=23 / scenecut=40 / intra_refresh=0 / rc_lookahead=50 / rc=2pass / mbtree=1 / bitrate=5179 / ratetol=1.0 / qcomp=0.60 / qpmin=0 / qpmax=69 / qpstep=4 / cplxblur=20.0 / qblur=0.5 / ip_ratio=1.40 / aq=1:1.00
Language : English
Default : Yes
Forced : No
Audio
ID : 2
Format : DTS
Format/Info : Digital Theater Systems
Mode : 16
Format settings, Endianness : Big
Codec ID : A_DTS
Duration : 1h 56mn
Bit rate mode : Constant
Bit rate : 1 509 Kbps
Channel(s) : 6 channels
Channel positions : Front: L C R, Side: L R, LFE
Sampling rate : 48.0 KHz
Bit depth : 24 bits
Compression mode : Lossy
Stream size : 1.23 GiB (23%)
Language : English
Default : Yes
Forced : No
Text
ID : 3
Format : UTF-8
Codec ID : S_TEXT/UTF8
Codec ID/Info : UTF-8 Plain Text
Default : Yes
Forced : No
Menu
00:00:00.000 : en:00:00:00.000
00:07:59.396 : en:00:07:59.396
00:15:41.065 : en:00:15:41.065
00:23:26.363 : en:00:23:26.363
00:35:59.407 : en:00:35:59.407
00:46:07.598 : en:00:46:07.598
01:01:51.207 : en:01:01:51.207
01:11:53.893 : en:01:11:53.893
01:21:54.159 : en:01:21:54.159
01:34:27.120 : en:01:34:27.120
01:44:30.139 : en:01:44:30.139
01:52:50.764 : en:01:52:50.764

Скриншоты




Показать сообщения:    

Текущее время: 11-Дек 07:11

Часовой пояс: UTC + 3


Вы не можете начинать темы
Вы не можете отвечать на сообщения
Вы не можете редактировать свои сообщения
Вы не можете удалять свои сообщения
Вы не можете голосовать в опросах
Вы не можете прикреплять файлы к сообщениям
Вы не можете скачивать файлы