Открой глаза / Abre los ojos / Open Your Eyes (Алехандро Аменабар / Alejandro Amenabar) [1997, Испания, Франция, Италия, фантастика, триллер, драма, BDRip 720p] MVO + AVO + Sub Rus, Eng + Original Spa


 

[Цитировать]

Открой глаза / Abre los ojos / Open Your Eyes
Страна: Испания, Франция, Италия
Жанр: фантастика, триллер, драма,
Год выпуска: 1997
Продолжительность: 01:58:37-Перевод 1: Профессиональный (многоголосый закадровый)
Перевод 2: Авторский (одноголосый закадровый) Петр Карцев
Cубтитры: русские, английские
Оригинальная аудиодорожка: испанский-Режиссер: Алехандро Аменабар / Alejandro Amenabar-В ролях: Эдуардо Норьега, Пенелопа Крус, Чете Лера, Феле Мартинес, Найва Нимри, Жерар Баррэ, Хорхе Де Хуан, Мигель Паленсуэла, Педро Мигель Мартинес, Ион Габелла, Хосерра Кадиньянос , Тристан Ульоа-Описание:
Сезар - красивый парень и богатый наследник, однажды влюбившись, уводит девушку у своего друга. И словно в наказание судьба сыграла с ним злую шутку: его лицо стало безобразным.
Но происходит странное: его прежняя жизнь не утрачена безвозвратно, иногда он по-прежнему красив и счастлив. Что это? Параллельные жизни или одна из них только сон?! Где теперь реальность?-Сэмпл: Скачать-Тип релиза: BDRip 720p (Abre.los.ojos.1997.720p.BluRay.DD5.1.x264-DON)
Контейнер: MKV-Видео: 1280x692 (16:9); 9999 kbps; 24.000 fps; 0.470 bpp
Аудио 1: Russian; AC3; 48.0 KHz; 6ch; 384 Kbps MVO
Аудио 2: Russian; AC3; 48.0 KHz; 2ch; 192 Kbps AVO
Аудио 3: Spanish; AC3; 48.0 KHz; 6ch; 640 Kbps
Аудио 4: Spanish; AC3; 48.0 KHz; 6ch; 640 Kbps commentary
Формат субтитров: softsub (SRT)

MediaInfo

Format : Matroska
Format version : Version 4 / Version 2
File size : 9.82 GiB
Duration : 1h 58mn
Overall bit rate : 11.9 Mbps
Encoded date : UTC 2015-04-07 19:53:43
Writing application : mkvmerge v7.2.0 ('On Every Street') 64bit built on Sep 13 2014 15:52:10
Writing library : libebml v1.3.0 + libmatroska v1.4.1
Attachements : poster.jpg
_STATISTICS_WRITING_APP : mkvmerge v7.2.0 ('On Every Street') 64bit built on Sep 13 2014 15:52:10
_STATISTICS_WRITING_DATE_UTC : 2015-04-07 19:53:43
_STATISTICS_TAGS : BPS DURATION NUMBER_OF_FRAMES NUMBER_OF_BYTES
DURATION : 01:51:24.340000000
NUMBER_OF_FRAMES : 1196
NUMBER_OF_BYTES : 72277
Video
ID : 1
Format : AVC
Format/Info : Advanced Video Codec
Format profile : High@L4.1
Format settings, CABAC : Yes
Format settings, ReFrames : 9 frames
Codec ID : V_MPEG4/ISO/AVC
Duration : 1h 58mn
Bit rate : 9 999 Kbps
Width : 1 280 pixels
Height : 692 pixels
Display aspect ratio : 1.85:1
Frame rate mode : Constant
Frame rate : 24.000 fps
Color space : YUV
Chroma subsampling : 4:2:0
Bit depth : 8 bits
Scan type : Progressive
Bits/(Pixel*Frame) : 0.470
Stream size : 8.09 GiB (82%)
Writing library : x264 core 146 r2538kMod 121396c
Encoding settings : cabac=1 / ref=9 / deblock=1:-3:-3 / analyse=0x3:0x113 / me=umh / subme=11 / psy=1 / fade_compensate=0.00 / psy_rd=1.00:0.00 / mixed_ref=1 / me_range=32 / chroma_me=1 / trellis=2 / 8x8dct=1 / cqm=0 / deadzone=21,11 / fast_pskip=0 / chroma_qp_offset=-3 / threads=12 / lookahead_threads=2 / sliced_threads=0 / nr=0 / decimate=1 / interlaced=0 / bluray_compat=0 / constrained_intra=0 / fgo=0 / bframes=9 / b_pyramid=2 / b_adapt=2 / b_bias=0 / direct=1 / weightb=1 / open_gop=0 / weightp=2 / keyint=230 / keyint_min=23 / scenecut=40 / intra_refresh=0 / rc_lookahead=40 / rc=2pass / mbtree=0 / bitrate=9999 / ratetol=1.0 / qcomp=0.65 / qpmin=0 / qpmax=69 / qpstep=4 / cplxblur=20.0 / qblur=0.5 / vbv_maxrate=50000 / vbv_bufsize=62500 / nal_hrd=none / filler=0 / ip_ratio=1.40 / pb_ratio=1.30 / aq=3:0.85
Language : Spanish
Default : Yes
Forced : No
_STATISTICS_WRITING_APP : mkvmerge v7.2.0 ('On Every Street') 64bit built on Sep 13 2014 15:52:10
_STATISTICS_WRITING_DATE_UTC : 2015-04-07 19:53:43
_STATISTICS_TAGS : BPS DURATION NUMBER_OF_FRAMES NUMBER_OF_BYTES
DURATION : 01:58:37.459000000
NUMBER_OF_FRAMES : 170819
NUMBER_OF_BYTES : 8892340239
Audio #1
ID : 2
Format : AC-3
Format/Info : Audio Coding 3
Mode extension : CM (complete main)
Format settings, Endianness : Big
Codec ID : A_AC3
Duration : 1h 58mn
Bit rate mode : Constant
Bit rate : 384 Kbps
Channel(s) : 6 channels
Channel positions : Front: L C R, Side: L R, LFE
Sampling rate : 48.0 KHz
Bit depth : 16 bits
Compression mode : Lossy
Stream size : 326 MiB (3%)
Title : MVO
Language : Russian
Default : Yes
Forced : No
Audio #2
ID : 3
Format : AC-3
Format/Info : Audio Coding 3
Mode extension : CM (complete main)
Format settings, Endianness : Big
Codec ID : A_AC3
Duration : 1h 58mn
Bit rate mode : Constant
Bit rate : 192 Kbps
Channel(s) : 2 channels
Channel positions : Front: L R
Sampling rate : 48.0 KHz
Bit depth : 16 bits
Compression mode : Lossy
Stream size : 163 MiB (2%)
Title : AVO Петр Карцев
Language : Russian
Default : No
Forced : No
Audio #3
ID : 4
Format : AC-3
Format/Info : Audio Coding 3
Mode extension : CM (complete main)
Format settings, Endianness : Big
Codec ID : A_AC3
Duration : 1h 58mn
Bit rate mode : Constant
Bit rate : 640 Kbps
Channel(s) : 6 channels
Channel positions : Front: L C R, Side: L R, LFE
Sampling rate : 48.0 KHz
Bit depth : 16 bits
Compression mode : Lossy
Stream size : 543 MiB (5%)
Language : Spanish
Default : No
Forced : No
Audio #4
ID : 5
Format : AC-3
Format/Info : Audio Coding 3
Mode extension : CM (complete main)
Format settings, Endianness : Big
Codec ID : A_AC3
Duration : 1h 58mn
Bit rate mode : Constant
Bit rate : 640 Kbps
Channel(s) : 6 channels
Channel positions : Front: L C R, Side: L R, LFE
Sampling rate : 48.0 KHz
Bit depth : 16 bits
Compression mode : Lossy
Stream size : 543 MiB (5%)
Title : Commentary
Language : Spanish
Default : No
Forced : No
Text #1
ID : 6
Format : UTF-8
Codec ID : S_TEXT/UTF8
Codec ID/Info : UTF-8 Plain Text
Language : English
Default : No
Forced : No
Text #2
ID : 7
Format : UTF-8
Codec ID : S_TEXT/UTF8
Codec ID/Info : UTF-8 Plain Text
Language : Russian
Default : No
Forced : No
Menu
00:00:00.000 : en:00:00:00.000
00:08:40.083 : en:00:08:40.083
00:20:59.542 : en:00:20:59.542
00:32:44.167 : en:00:32:44.167
00:45:23.292 : en:00:45:23.292
00:55:54.167 : en:00:55:54.167
01:03:11.292 : en:01:03:11.292
01:12:05.167 : en:01:12:05.167
01:21:23.250 : en:01:21:23.250
01:28:13.333 : en:01:28:13.333
01:46:14.292 : en:01:46:14.292
01:55:08.334 : en:01:55:08.334

Скриншоты




Показать сообщения:    

Текущее время: 03-Дек 20:45

Часовой пояс: UTC + 3


Вы не можете начинать темы
Вы не можете отвечать на сообщения
Вы не можете редактировать свои сообщения
Вы не можете удалять свои сообщения
Вы не можете голосовать в опросах
Вы не можете прикреплять файлы к сообщениям
Вы не можете скачивать файлы