Дикие пчёлы / Divoke vcely (Богдан Слама / Bohdan Sláma) [2001, Чехия, драма, комедия, HDTVRip 720p] AVO (Кузнецов) + Sub Eng + Original Cze


 

[Цитировать]

Дикие пчёлы / Divoké včely
Страна: Чехия
Жанр: драма, комедия
Год выпуска: 2001
Продолжительность: 01:34:09
Перевод: Авторский (одноголосый закадровый) Кузнецов
Cубтитры: английские
Оригинальная аудиодорожка: чешский
Режиссер: Богдан Слама / Bohdan Sláma
В ролях: Зденек Раушер, Татьяна Вильгельмова, Марек Дэниэл, Ванда Гибнерова, Павел Лишка, Эва Таухенова, Йозеф Поласек, Зузана Крёнерова, Ярослав Душек
Описание: У жителей далёкой деревушки в Северной Моравии есть всего два занятия: ничего не делать или пойти в бар. После 40 лет коммунизма здесь остались только полуразвалившаяся церковь и истощённые поля. Обитателям деревни остаётся относиться с юмором к своей беспомощности и с нетерпением ожидать главного события года — бала пожарников. Кайя, сын доморощенного деревенского философа, застенчивый и простодушный лесоруб, положил глаз на Божку, которая работает в деревенском ларьке. К несчастью, у неё уже роман с Ладой, местным щёголем и имитатором Майкла Джексона…
Доп. информация:


Тип релиза: HDTVRip 720p | DON | sample
Контейнер: MKV
Видео: H.264/AVC, 1280x546, 2.35:1, 25.00fps, 6511 Kbps
Аудио #1 RUS: DD 2.0, 48 kHz, 224 kbps
Аудио #2 CZE: DD 2.0, 48 kHz, 224 kbps
Формат субтитров: softsub (SRT)

MediaInfo

Complete name                            : Divoke.vcely.2001.720p.HDTV.x264.rus.cze.mkv
Format                                   : Matroska
Format version                           : Version 4 / Version 2
File size                                : 4.67 GiB
Duration                                 : 1h 34mn
Overall bit rate                         : 7 100 Kbps
Movie name                               : Divoké včely (2001)
Encoded date                             : UTC 2015-04-02 11:15:32
Writing application                      : mkvmerge v7.6.0 ('Garden of Dreams') 64bit built on Feb  8 2015 13:04:34
Writing library                          : libebml v1.3.1 + libmatroska v1.4.2
DURATION                                 : 01:34:09.952000000
NUMBER_OF_FRAMES                         : 176561
NUMBER_OF_BYTES                          : 158198656
_STATISTICS_WRITING_APP                  : mkvmerge v7.6.0 ('Garden of Dreams') 64bit built on Feb  8 2015 13:04:34
_STATISTICS_WRITING_DATE_UTC             : 2015-04-02 11:15:32
_STATISTICS_TAGS                         : BPS DURATION NUMBER_OF_FRAMES NUMBER_OF_BYTES
Video
ID                                       : 1
Format                                   : AVC
Format/Info                              : Advanced Video Codec
Format profile                           : High@L4.1
Format settings, CABAC                   : Yes
Format settings, ReFrames                : 11 frames
Codec ID                                 : V_MPEG4/ISO/AVC
Duration                                 : 1h 34mn
Bit rate                                 : 6 511 Kbps
Width                                    : 1 280 pixels
Height                                   : 546 pixels
Display aspect ratio                     : 2.35:1
Frame rate mode                          : Constant
Frame rate                               : 25.000 fps
Color space                              : YUV
Chroma subsampling                       : 4:2:0
Bit depth                                : 8 bits
Scan type                                : Progressive
Bits/(Pixel*Frame)                       : 0.373
Stream size                              : 4.28 GiB (92%)
Writing library                          : x264 core 146 r0+2584 6cf85c6 t_mod_Custom [8-bit@all ]
Encoding settings                        : cabac=1 / ref=11 / deblock=1:-3:-3 / analyse=0x3:0x133 / me=tesa / subme=10 / psy=1 / fade_compensate=0.00 / psy_rd=1.05:0.00 / mixed_ref=1 / me_range=24 / chroma_me=1 / trellis=2 / 8x8dct=1 / cqm=0 / deadzone=21,11 / fast_pskip=0 / chroma_qp_offset=-2 / threads=12 / lookahead_threads=2 / sliced_threads=0 / nr=0 / decimate=0 / interlaced=0 / bluray_compat=0 / constrained_intra=0 / fgo=0 / bframes=8 / b_pyramid=2 / b_adapt=2 / b_bias=0 / direct=3 / weightb=1 / open_gop=0 / weightp=2 / keyint=250 / keyint_min=25 / scenecut=40 / intra_refresh=0 / rc_lookahead=60 / rc=crf / mbtree=0 / crf=17.0000 / qcomp=0.60 / qpmin=0:0:0 / qpmax=69:69:69 / qpstep=4 / vbv_maxrate=62500 / vbv_bufsize=78125 / crf_max=0.0 / nal_hrd=none / filler=0 / ip_ratio=1.40 / pb_ratio=1.30 / aq=3:0.80 / aq-sensitivity=10.00 / aq-factor=1.00:1.00:1.00 / aq2=0 / aq3=0
Language                                 : Czech
Default                                  : Yes
Forced                                   : No
Audio #1
ID                                       : 2
Format                                   : AC-3
Format/Info                              : Audio Coding 3
Mode extension                           : CM (complete main)
Format settings, Endianness              : Big
Codec ID                                 : A_AC3
Duration                                 : 1h 34mn
Bit rate mode                            : Constant
Bit rate                                 : 224 Kbps
Channel(s)                               : 2 channels
Channel positions                        : Front: L R
Sampling rate                            : 48.0 KHz
Bit depth                                : 16 bits
Compression mode                         : Lossy
Stream size                              : 151 MiB (3%)
Title                                    : VO [Сергей Кузнецов]
Language                                 : Russian
Default                                  : Yes
Forced                                   : No
Audio #2
ID                                       : 3
Format                                   : AC-3
Format/Info                              : Audio Coding 3
Format profile                           : Dolby Digital
Mode extension                           : CM (complete main)
Format settings, Endianness              : Big
Codec ID                                 : A_AC3
Duration                                 : 1h 34mn
Bit rate mode                            : Constant
Bit rate                                 : 224 Kbps
Channel(s)                               : 2 channels
Channel positions                        : Front: L R
Sampling rate                            : 48.0 KHz
Bit depth                                : 16 bits
Compression mode                         : Lossy
Stream size                              : 151 MiB (3%)
Language                                 : Czech
Default                                  : No
Forced                                   : No
Text
ID                                       : 4
Format                                   : UTF-8
Codec ID                                 : S_TEXT/UTF8
Codec ID/Info                            : UTF-8 Plain Text
Language                                 : English
Default                                  : No
Forced                                   : No
Menu
00:00:00.000                             : cs:Začátek dne
00:07:36.000                             : cs:Kájova rodina
00:12:24.600                             : cs:Božka
00:17:57.400                             : cs:Na seníku
00:22:33.520                             : cs:U Božky doma
00:25:51.640                             : cs:Péťův příjezd domů
00:30:09.040                             : cs:Setkání
00:39:43.640                             : cs:Jana, už tě zase stěhuje!
00:41:22.960                             : cs:V hospodě
00:47:18.640                             : cs:Svérázná matka
00:50:05.560                             : cs:Vztahy
00:56:27.240                             : cs:Na hřbitově
01:00:52.960                             : cs:Odchod na zábavu
01:03:49.760                             : cs:Zábava začíná
01:07:44.280                             : cs:U stánku
01:10:19.240                             : cs:Zábava
01:14:13.240                             : cs:Vrchol večera
01:18:53.000                             : cs:Na úplně jiný planetě
01:25:01.160                             : cs:Druhý den
01:27:39.760                             : cs:Ty vole, pryč! + Závěrečné titulky

Скриншоты




Показать сообщения:    

Текущее время: 07-Дек 21:24

Часовой пояс: UTC + 3


Вы не можете начинать темы
Вы не можете отвечать на сообщения
Вы не можете редактировать свои сообщения
Вы не можете удалять свои сообщения
Вы не можете голосовать в опросах
Вы не можете прикреплять файлы к сообщениям
Вы не можете скачивать файлы