Адамовы яблоки / Adams æbler / Adams aebler / Adam's Apples (Андерс Томас Йенсен / Anders Thomas Jensen) [2005, Дания, Германия, драма, BDRip 720p] VO (giveaway) + AVO (Карповский) + Sub Rus, Eng + Original Dan


 

[Цитировать]

Адамовы яблоки / Adams æbler / Adams aebler / Adam's Apples
Страна: Дания, Германия
Жанр: драма
Год выпуска: 2005
Продолжительность: 01:35:03
Перевод 1: Одноголосый закадровый - giveaway
Перевод 2: Авторский (одноголосый закадровый) - Карповский
Cубтитры: русские (giveaway), английские
Оригинальная аудиодорожка: датский
Режиссер: Андерс Томас Йенсен / Anders Thomas Jensen
В ролях: Ульрих Томсен, Мадс Миккелсен, Паприка Стин, Оле Теструп, Али Казим, Николас Бро, Томас Виллум Йенсен, Николай Ли Каас, Гюрд Лефквист, Ларс Ранте
Описание: Адам, бывший лидер неонацистской группировки, досрочно освобождён из тюрьмы. Ему приходится пройти испытательный срок в сельской церкви, настоятелем которой является Иван, верящий в добро и честность людей. Адаму же этот испытательный срок нужен только для того, чтобы переждать некоторое время и вернуться к своим старым занятиям. История непростых взаимоотношений между двумя такими разными персонажами и легла в основу этого фильма…
19 wins & 13 nominations
Доп. информация: К BDRip 720p, скачанному с забугорного трекера, добавлены русская звуковая дорожка и субтитры с этой раздачи, за которые спасибо giveaway и русская звуковая дорожка с этой раздачи, за которую спасибо bobrm2.
Используемый софт: MKVtool, BeSweet, Sony Vegas 10
Сэмпл: http://multi-up.com/1041485
Тип релиза: BDRip 720p
Контейнер: MKV
Видео: AVC, 7740 Кбит/сек, 1280x558, 23.976 fps
Аудио: Russian (Dolby AC3, 2 ch), 192 Kbp - giveaway
Аудио 2: Russian (Dolby AC3, 2 ch), 192 Kbp - Карповский
Аудио 3: Danish (Dolby AC3, 6 ch), 640 Kbp
Формат субтитров: UTF-8

MediaInfo

Формат : Matroska
Версия формата : Version 2
Размер файла : 5,93 Гбайт
Продолжительность : 1 ч. 35 м.
Общий поток : 8935 Кбит/сек
Дата кодирования : UTC 2015-03-31 16:17:15
Программа кодирования : mkvmerge v7.5.0 ('Glass Culture') 32bit built on Jan 4 2015 16:37:25
Библиотека кодирования : libebml v1.3.1 + libmatroska v1.4.2
DURATION : 01:29:10.976000000
NUMBER_OF_FRAMES : 675
NUMBER_OF_BYTES : 29711
_STATISTICS_WRITING_APP : mkvmerge v7.5.0 ('Glass Culture') 32bit built on Jan 4 2015 16:37:25
_STATISTICS_WRITING_DATE_UTC : 2015-03-31 16:17:15
_STATISTICS_TAGS : BPS DURATION NUMBER_OF_FRAMES NUMBER_OF_BYTES
Видео
Идентификатор : 1
Формат : AVC
Формат/Информация : Advanced Video Codec
Профиль формата : High@L4.1
Параметр CABAC формата : Да
Параметр ReFrames формата : 11 кадров
Идентификатор кодека : V_MPEG4/ISO/AVC
Продолжительность : 1 ч. 35 м.
Битрейт : 7733 Кбит/сек
Ширина : 1280 пикселей
Высота : 558 пикселей
Соотношение сторон : 2,25:1
Режим частоты кадров : Постоянный
Частота кадров : 23,976 кадра/сек
Цветовое пространство : YUV
Субдискретизация насыщенности : 4:2:0
Битовая глубина : 8 бит
Тип развёртки : Прогрессивная
Бит/(Пиксели*Кадры) : 0.452
Размер потока : 5,14 Гбайт (87%)
Заголовок : Adams æbler (2005)
Библиотека кодирования : x264 core 146 r2538kMod 121396c
Настройки программы : cabac=1 / ref=11 / deblock=1:-3:-3 / analyse=0x3:0x133 / me=umh / subme=10 / psy=1 / fade_compensate=0.00 / psy_rd=1.00:0.00 / mixed_ref=1 / me_range=64 / chroma_me=1 / trellis=2 / 8x8dct=1 / cqm=0 / deadzone=21,11 / fast_pskip=0 / chroma_qp_offset=-2 / threads=12 / lookahead_threads=2 / sliced_threads=0 / nr=0 / decimate=0 / interlaced=0 / bluray_compat=0 / constrained_intra=0 / fgo=0 / bframes=7 / b_pyramid=2 / b_adapt=2 / b_bias=0 / direct=3 / weightb=1 / open_gop=0 / weightp=2 / keyint=250 / keyint_min=23 / scenecut=40 / intra_refresh=0 / rc_lookahead=40 / rc=crf / mbtree=0 / crf=17.0000 / qcomp=0.75 / qpmin=0 / qpmax=69 / qpstep=4 / vbv_maxrate=50000 / vbv_bufsize=62500 / crf_max=0.0 / nal_hrd=none / filler=0 / ip_ratio=1.30 / pb_ratio=1.20 / aq=3:0.60
Язык : Russian
Default : Да
Forced : Нет
Основные цвета : BT.709
Характеристики трансфера : BT.709
Коэффициенты матрицы : BT.709
colour_range : Limited
DURATION : 01:35:03.949000000
NUMBER_OF_FRAMES : 136758
NUMBER_OF_BYTES : 5638557563
_STATISTICS_WRITING_APP : mkvmerge v7.5.0 ('Glass Culture') 32bit built on Jan 4 2015 16:37:25
_STATISTICS_WRITING_DATE_UTC : 2015-03-31 16:17:15
_STATISTICS_TAGS : BPS DURATION NUMBER_OF_FRAMES NUMBER_OF_BYTES
Аудио #1
Идентификатор : 2
Формат : AC-3
Формат/Информация : Audio Coding 3
Расширение режима : CM (complete main)
Параметр Endianness формата : Big
Идентификатор кодека : A_AC3
Продолжительность : 1 ч. 35 м.
Вид битрейта : Постоянный
Битрейт : 192 Кбит/сек
Каналы : 2 канала
Расположение каналов : Front: L R
Частота : 48,0 КГц
Битовая глубина : 16 бит
Метод сжатия : С потерями
Размер потока : 131 Мбайт (2%)
Заголовок : Russian, AC3, 192 Kbp - giveaway
Язык : Russian
Default : Да
Forced : Нет
Аудио #2
Идентификатор : 3
Формат : AC-3
Формат/Информация : Audio Coding 3
Расширение режима : CM (complete main)
Параметр Endianness формата : Big
Идентификатор кодека : A_AC3
Продолжительность : 1 ч. 35 м.
Вид битрейта : Постоянный
Битрейт : 192 Кбит/сек
Каналы : 2 канала
Расположение каналов : Front: L R
Частота : 48,0 КГц
Битовая глубина : 16 бит
Метод сжатия : С потерями
Размер потока : 131 Мбайт (2%)
Заголовок : Russian, AC3, 192 Kbp - Карповский
Язык : Russian
Default : Нет
Forced : Нет
Аудио #3
Идентификатор : 4
Формат : AC-3
Формат/Информация : Audio Coding 3
Расширение режима : CM (complete main)
Параметр Endianness формата : Big
Идентификатор кодека : A_AC3
Продолжительность : 1 ч. 35 м.
Вид битрейта : Постоянный
Битрейт : 640 Кбит/сек
Каналы : 6 каналов
Расположение каналов : Front: L C R, Side: L R, LFE
Частота : 48,0 КГц
Битовая глубина : 16 бит
Метод сжатия : С потерями
Размер потока : 435 Мбайт (7%)
Заголовок : AC3 5.1 @ 640 kbps
Язык : Danish
Default : Нет
Forced : Нет
Текст #1
Идентификатор : 5
Формат : UTF-8
Идентификатор кодека : S_TEXT/UTF8
Идентификатор кодека/Информация : UTF-8 Plain Text
Язык : Russian
Default : Нет
Forced : Нет
Текст #2
Идентификатор : 6
Формат : UTF-8
Идентификатор кодека : S_TEXT/UTF8
Идентификатор кодека/Информация : UTF-8 Plain Text
Язык : English
Default : Нет
Forced : Нет
Меню
00:00:00.000 : en:00:00:00.000
00:08:07.987 : en:00:08:07.987
00:15:20.586 : en:00:15:20.586
00:22:09.662 : en:00:22:09.662
00:31:33.141 : en:00:31:33.141
00:37:48.766 : en:00:37:48.766
00:48:14.433 : en:00:48:14.433
00:57:58.100 : en:00:57:58.100
01:05:00.271 : en:01:05:00.271
01:11:01.632 : en:01:11:01.632
01:19:13.457 : en:01:19:13.457
01:24:46.164 : en:01:24:46.164
01:32:09.357 : en:01:32:09.357

Скриншоты




Показать сообщения:    

Текущее время: 10-Дек 17:45

Часовой пояс: UTC + 3


Вы не можете начинать темы
Вы не можете отвечать на сообщения
Вы не можете редактировать свои сообщения
Вы не можете удалять свои сообщения
Вы не можете голосовать в опросах
Вы не можете прикреплять файлы к сообщениям
Вы не можете скачивать файлы