Под Солнцем Сатаны / Sous le soleil de Satan (Морис Пиала / Maurice Pialat) [1987, Франция, драма, BDRip 720p] MVO + Original Fre + Sub (Rus, Fre, Eng)


 

[Цитировать]

Под Солнцем Сатаны / Sous le soleil de Satan- Год выпуска: 1987
Страна: Франция
Жанр: драма
Продолжительность: 01:37:36
Перевод: Профессиональный (многоголосый, закадровый)
Оригинальная звуковая дорожка: French
Субтитры: Russian, French, English-Режиссер: Морис Пиала / Maurice Pialat
В ролях: Жерар Депардье, Сандрин Боннэр, Морис Пиала, Ален Артюр, Ян Деде, Бриджитт Лежандр, Жан-Клод Бурла, Жан-Кристоф Буве, Филипп Паллю, Марсель Анселен
О фильме: Молодой католический аббат Дониссан истово верует, просиживает над книгами ночи напролет, но сомневается в своем предназначении быть приходским священником и занимается самобичеванием. Заблудившись ночью на сельской дороге, он встречает незнакомца, предложившего себя в попутчики, и соглашается принять его помощь, но потом в ужасе узнаёт в нём Сатану и, борясь с искушением, теряет сознание.
Утром к Дониссану обращается шестнадцатилетняя Жермена Малорти по прозвищу Мушетта, убившая своего любовника и родившая в психиатрической лечебнице мёртвого ребёнка. Дониссан оказывается не в состоянии помочь девушке, а его увещевания вызывают новый приступ безумия: вернувшись домой, Мушетта призывает Сатану и совершает самоубийство, в котором аббат винит себя…-SbR!
Релиз:
Формат: MKV
Видео: 1194x720 at 24 fps, x264@L4.1, ~10520 kbps avg
Аудио #01: Russian: 48 kHz, AC3, 2/0 (L,R) ch, ~192.00 kbps avg |Многоголосый закадровый|
Аудио #02: French: 48 kHz/16-bit, DTS 1.0, ~768.00 kbps avg
Семпл-

Source vs Encode






-

mInfo

Формат : Matroska
Версия формата : Version 4 / Version 2
Размер файла : 7,97 Гбайт
Продолжительность : 1 ч. 37 м.
Общий поток : 11,7 Мбит/сек
Дата кодирования : UTC 2013-09-04 03:57:30
Программа кодирования : mkvmerge v6.3.0 ('You can't stop me!') built on Jun 28 2013 20:09:41
Библиотека кодирования : libebml v1.3.0 + libmatroska v1.4.0
Видео
Идентификатор : 1
Формат : AVC
Формат/Информация : Advanced Video Codec
Профиль формата : High@L4.1
Параметр CABAC формата : Да
Параметр ReFrames формата : 9 кадров
Идентификатор кодека : V_MPEG4/ISO/AVC
Продолжительность : 1 ч. 37 м.
Битрейт : 10,5 Мбит/сек
Ширина : 1194 пикселя
Высота : 720 пикселей
Соотношение сторон : 1,658
Режим частоты кадров : Постоянный
Частота кадров : 24,000 кадра/сек
Цветовое пространство : YUV
Субдискретизация насыщенности : 4:2:0
Битовая глубина : 8 бит
Тип развёртки : Прогрессивная
Бит/(Пиксели*Кадры) : 0.508
Размер потока : 7,15 Гбайт (90%)
Библиотека кодирования : x264 core 138 r2358kMod 9e941d1
Настройки программы : cabac=1 / ref=9 / deblock=1:-3:-3 / analyse=0x3:0x113 / me=umh / subme=10 / psy=1 / fade_compensate=0.00 / psy_rd=0.90:0.02 / mixed_ref=1 / me_range=32 / chroma_me=1 / trellis=2 / 8x8dct=1 / cqm=0 / deadzone=21,11 / fast_pskip=0 / chroma_qp_offset=-3 / threads=6 / lookahead_threads=1 / sliced_threads=0 / nr=0 / decimate=1 / interlaced=0 / bluray_compat=0 / constrained_intra=0 / bframes=12 / b_pyramid=2 / b_adapt=2 / b_bias=0 / direct=3 / weightb=1 / open_gop=0 / weightp=2 / keyint=250 / keyint_min=24 / scenecut=40 / intra_refresh=0 / rc=crf / mbtree=0 / crf=18.5000 / qcomp=0.75 / qpmin=0 / qpmax=69 / qpstep=4 / ip_ratio=1.30 / pb_ratio=1.20 / aq=1:0.85
Язык : English
Default : Да
Forced : Нет
Основные цвета : BT.709
Характеристики трансфера : BT.709
Коэффициенты матрицы : BT.709
colour_range : Limited
Аудио #1
Идентификатор : 2
Формат : AC-3
Формат/Информация : Audio Coding 3
Расширение режима : CM (complete main)
Параметр Endianness формата : Big
Идентификатор кодека : A_AC3
Продолжительность : 1 ч. 37 м.
Вид битрейта : Постоянный
Битрейт : 192 Кбит/сек
Каналы : 2 канала
Расположение каналов : Front: L R
Частота : 48,0 КГц
Битовая глубина : 16 бит
Метод сжатия : С потерями
Размер потока : 134 Мбайт (2%)
Заголовок : Многоголосый закадровый
Язык : Russian
Default : Да
Forced : Нет
Аудио #2
Идентификатор : 3
Формат : DTS
Формат/Информация : Digital Theater Systems
Режим : 16
Параметр Endianness формата : Big
Идентификатор кодека : A_DTS
Продолжительность : 1 ч. 37 м.
Вид битрейта : Постоянный
Битрейт : 768 Кбит/сек
Каналы : 1 канал
Расположение каналов : Front: C
Частота : 48,0 КГц
Битовая глубина : 16 бит
Метод сжатия : С потерями
Размер потока : 536 Мбайт (7%)
Язык : French
Default : Нет
Forced : Нет
Текст #1
Идентификатор : 4
Формат : UTF-8
Идентификатор кодека : S_TEXT/UTF8
Идентификатор кодека/Информация : UTF-8 Plain Text
Язык : Russian
Default : Нет
Forced : Нет
Текст #2
Идентификатор : 5
Формат : UTF-8
Идентификатор кодека : S_TEXT/UTF8
Идентификатор кодека/Информация : UTF-8 Plain Text
Язык : French
Default : Нет
Forced : Нет
Текст #3
Идентификатор : 6
Формат : UTF-8
Идентификатор кодека : S_TEXT/UTF8
Идентификатор кодека/Информация : UTF-8 Plain Text
Язык : English
Default : Нет
Forced : Нет
Меню
00:00:00.000 : en:00:00:00.000
00:12:31.290 : en:00:12:31.290
00:22:14.000 : en:00:22:14.000
00:33:48.791 : en:00:33:48.791
00:38:07.291 : en:00:38:07.291
00:46:56.791 : en:00:46:56.791
00:56:24.208 : en:00:56:24.208
01:05:34.250 : en:01:05:34.250
01:11:29.500 : en:01:11:29.500
01:15:38.916 : en:01:15:38.916
01:24:28.125 : en:01:24:28.125
01:27:15.125 : en:01:27:15.125
-



Показать сообщения:    

Текущее время: 11-Дек 14:54

Часовой пояс: UTC + 3


Вы не можете начинать темы
Вы не можете отвечать на сообщения
Вы не можете редактировать свои сообщения
Вы не можете удалять свои сообщения
Вы не можете голосовать в опросах
Вы не можете прикреплять файлы к сообщениям
Вы не можете скачивать файлы