Мы - Лучшие! / Vi är bäst! / We Are The Best! (Лукас Мудиссон / Lukas Moodysson) [2013, Швеция, Дания, драма, музыка, BDRip 720p] MVO + Sub Eng + Original Swe


 

[Цитировать]

МЫ - ЛУЧШИЕ!
Vi är bäst! / We Are The Best!
Страна: Швеция, Дания
Жанр: драма, музыка
Год выпуска: 2013
Продолжительность: 01:42:02
Перевод: Профессиональный (многоголосый закадровый)
Cубтитры: английские
Оригинальная аудиодорожка: шведский
Режиссер: Лукас Мудиссон / Lukas Moodysson
В ролях: Мира Баркхаммар, Мира Гросин, Лив Лемойн, Маттиас Виберг, Анна Райдгрен, Питер Эрикссон, Чарли Фальк и др.
Описание:
Действие фильма разворачивается в 1980-х годах в Стокгольме. Главные героини фильма «Мы - Лучшие!» – три школьницы, которые решили создать панк-группу — несмотря на то, что у них не было инструментов, а все вокруг говорили, что панк-рок умер.
Сэмпл
Тип релиза: BDRip 720p
Контейнер: MKV
Видео: MPEG4 AVC, 4612 Кбит/с, 1280x688 (1,85:1), 23,976 кадра/с
Аудио 1: AC3, 448 Кбит/с, 6 каналов, 48 КГц | Русский
Аудио 2: DTS, 1509 Кбит/с (6 каналов), 48 КГц, 24 бит | Swedish

MediaInfo

Общее
Уникальный идентификатор : 190818135347018391890664360620227522424 (0x8F8E3C6FB80D372A974283E155736F78)
Полное имя : Мы - Лучшие! (Lukas Moodysson, 2013).mkv
Формат : Matroska
Версия формата : Version 4 / Version 2
Размер файла : 4,68 Гбайт
Продолжительность : 1 ч. 42 м.
Общий поток : 6570 Кбит/сек
Дата кодирования : UTC 2015-03-30 15:55:13
Программа кодирования : mkvmerge v7.2.0 ('On Every Street') 64bit built on Sep 13 2014 15:52:10
Библиотека кодирования : libebml v1.3.0 + libmatroska v1.4.1
Видео
Идентификатор : 1
Формат : AVC
Формат/Информация : Advanced Video Codec
Профиль формата : High@L4.1
Параметр CABAC формата : Да
Параметр ReFrames формата : 5 кадров
Идентификатор кодека : V_MPEG4/ISO/AVC
Продолжительность : 1 ч. 42 м.
Битрейт : 4612 Кбит/сек
Ширина : 1280 пикселей
Высота : 688 пикселей
Соотношение сторон : 1,85:1
Режим частоты кадров : Постоянный
Частота кадров : 23,976 кадра/сек
Цветовое пространство : YUV
Субдискретизация насыщенности : 4:2:0
Битовая глубина : 8 бит
Тип развёртки : Прогрессивная
Бит/(Пиксели*Кадры) : 0.218
Размер потока : 3,19 Гбайт (68%)
Библиотека кодирования : x264 core 142 r2479 dd79a61
Настройки программы : cabac=1 / ref=5 / deblock=1:0:0 / analyse=0x3:0x133 / me=umh / subme=7 / psy=1 / psy_rd=1.00:0.00 / mixed_ref=1 / me_range=16 / chroma_me=1 / trellis=1 / 8x8dct=1 / cqm=0 / deadzone=21,11 / fast_pskip=0 / chroma_qp_offset=-2 / threads=12 / lookahead_threads=2 / sliced_threads=0 / nr=0 / decimate=1 / interlaced=0 / bluray_compat=0 / constrained_intra=0 / bframes=3 / b_pyramid=2 / b_adapt=2 / b_bias=0 / direct=3 / weightb=1 / open_gop=0 / weightp=2 / keyint=240 / keyint_min=23 / scenecut=40 / intra_refresh=0 / rc_lookahead=50 / rc=2pass / mbtree=1 / bitrate=4612 / ratetol=1.0 / qcomp=0.60 / qpmin=0 / qpmax=69 / qpstep=4 / cplxblur=20.0 / qblur=0.5 / ip_ratio=1.40 / aq=1:1.00
Язык : English
Default : Да
Forced : Нет
Аудио #1
Идентификатор : 2
Формат : AC-3
Формат/Информация : Audio Coding 3
Расширение режима : CM (complete main)
Параметр Endianness формата : Big
Идентификатор кодека : A_AC3
Продолжительность : 1 ч. 42 м.
Вид битрейта : Постоянный
Битрейт : 448 Кбит/сек
Каналы : 6 каналов
Расположение каналов : Front: L C R, Side: L R, LFE
Частота : 48,0 КГц
Битовая глубина : 16 бит
Метод сжатия : С потерями
Размер потока : 327 Мбайт (7%)
Заголовок : Russian
Язык : Russian
Default : Да
Forced : Нет
Аудио #2
Идентификатор : 3
Формат : DTS
Формат/Информация : Digital Theater Systems
Режим : 16
Параметр Endianness формата : Big
Идентификатор кодека : A_DTS
Продолжительность : 1 ч. 42 м.
Вид битрейта : Постоянный
Битрейт : 1509 Кбит/сек
Каналы : 6 каналов
Расположение каналов : Front: L C R, Side: L R, LFE
Частота : 48,0 КГц
Битовая глубина : 24 бит
Метод сжатия : С потерями
Размер потока : 1,08 Гбайт (23%)
Заголовок : Swedish DTS
Язык : Swedish
Default : Нет
Forced : Нет
Текст
Идентификатор : 4
Формат : UTF-8
Идентификатор кодека : S_TEXT/UTF8
Идентификатор кодека/Информация : UTF-8 Plain Text
Язык : English
Default : Нет
Forced : Нет
Меню
00:00:00.000 : en:00:00:00.000
00:05:04.054 : en:00:05:04.054
00:13:07.412 : en:00:13:07.412
00:23:42.838 : en:00:23:42.838
00:34:52.507 : en:00:34:52.507
00:44:33.838 : en:00:44:33.838
00:52:20.346 : en:00:52:20.346
01:04:08.678 : en:01:04:08.678
01:14:10.446 : en:01:14:10.446
01:21:17.498 : en:01:21:17.498
01:30:29.257 : en:01:30:29.257
01:38:26.234 : en:01:38:26.234

Альтернативные постеры




Показать сообщения:    

Текущее время: 09-Дек 22:28

Часовой пояс: UTC + 3


Вы не можете начинать темы
Вы не можете отвечать на сообщения
Вы не можете редактировать свои сообщения
Вы не можете удалять свои сообщения
Вы не можете голосовать в опросах
Вы не можете прикреплять файлы к сообщениям
Вы не можете скачивать файлы