Только представь! / Imagine (Анджей Якимовски / Andrzej Jakimowski) [2012, Польша, Португалия, Франция, Великобритания, драма, HDTV 1080i] DVO


 

[Цитировать]

Только представь! / Imagine
Страна: Польша, Португалия, Франция, Великобритания
Жанр: драма
Год выпуска: 2012
Продолжительность: 01:40:45
Перевод: Профессиональный (двухголосый закадровый)
Cубтитры: нет
Оригинальная аудиодорожка: нет
Режиссер: Анджей Якимовски / Andrzej Jakimowski
В ролях: Эдвард Хогг, Александра Мария Лара, Мельхиор Деруе, Дэвид Атракчи, Луиш Лукас
Описание: Лиссабонская специализированная клиника для слепых детей с мировой известностью. Ян, их новый педагог по пространственной ориентации, хочет выйти за пределы традиционных рамок обучения и помочь им исследовать их окружение, не чувствуя себя уязвимыми или напуганными. Ян быстро завоевывает их доверие, что побуждает его попробовать поставить перед ними задачи с большим элементом риска. Используя нешаблонные методы, он хочет стимулировать их любопытство и воображение. Когда все заходит слишком далеко, возникает вопрос, насколько реален образ того мира, который Ян внушает своим ученикам? И насколько честен с ними сам Ян?

Сэмпл: http://multi-up.com/1040313
Качество видео: HDTV 1080i
Формат видео: TS
Видео: AVC, 1920x1080, (16:9), 25 fps, 7.0 Mbps
Аудио: Русский, AC3, 48 kHz, 6 ch, 448 kbps

MediaInfo

General
ID : 1 (0x1)
Complete name : C:\Только представь!_2012_HDTV 1080i_RU.ts
Format : MPEG-TS
File size : 5.52 GiB
Duration : 1h 40mn
Overall bit rate mode : Variable
Overall bit rate : 7 840 Kbps
Video
ID : 302 (0x12E)
Menu ID : 20102 (0x4E86)
Format : AVC
Format/Info : Advanced Video Codec
Format profile : High@L4.0
Format settings, CABAC : Yes
Format settings, ReFrames : 4 frames
Codec ID : 27
Duration : 1h 40mn
Bit rate : 7 000 Kbps
Width : 1 920 pixels
Height : 1 080 pixels
Display aspect ratio : 16:9
Frame rate : 25.000 fps
Standard : Component
Color space : YUV
Chroma subsampling : 4:2:0
Bit depth : 8 bits
Scan type : Interlaced
Scan order : Top Field First
Bits/(Pixel*Frame) : 0.135
Stream size : 4.93 GiB (89%)
Color primaries : BT.709
Transfer characteristics : BT.709
Matrix coefficients : BT.709
Color range : Limited
Audio
ID : 402 (0x192)
Menu ID : 20102 (0x4E86)
Format : AC-3
Format/Info : Audio Coding 3
Mode extension : CM (complete main)
Format settings, Endianness : Big
Codec ID : 6
Duration : 1h 40mn
Bit rate mode : Constant
Bit rate : 448 Kbps
Channel(s) : 6 channels
Channel positions : Front: L C R, Side: L R, LFE
Sampling rate : 48.0 KHz
Bit depth : 16 bits
Compression mode : Lossy
Stream size : 323 MiB (6%)
Language : Russian

Скриншот c названием фильма

Скриншоты




Показать сообщения:    

Текущее время: 05-Дек 23:39

Часовой пояс: UTC + 3


Вы не можете начинать темы
Вы не можете отвечать на сообщения
Вы не можете редактировать свои сообщения
Вы не можете удалять свои сообщения
Вы не можете голосовать в опросах
Вы не можете прикреплять файлы к сообщениям
Вы не можете скачивать файлы