Вкус сайры / Осенний полдень / Sanma no aji / An Autumn Afternoon (Ясудзиро Одзу / Yasujiro Ozu) [1962, Япония, драма, BDRip 720p] [Criterion Collection] Sub (Rus, Eng) + Original Jap


 

[Цитировать]

Вкус сайры / Sanma no aji
Страна: Япония
Жанр: драма
Год выпуска: 1962
Продолжительность: 01:53:35
Перевод: Субтитры
Cубтитры: русские, английские
Оригинальная аудиодорожка: японский-Режиссер: Ясудзиро Одзу / Yasujiro Ozu
В ролях: Тисю Рю, Сима Ивасита, Кэйдзи Сада, Марико Окада, Тэруо Йошида, Синичиро Миками, Нобуо Накамура, Эйдзирё Тоно, Кунико Миякэ, Кёко Кисида, Рюдзи Кита, Тоёко Такахаси, Масао Ода, Фудзио Суга, Дайсуке Катё, Цюсай Сугавара, Харуко Сугимура
Описание: Пожилой мужчина Шухей Хираяма (Тисю Рю) тихо живет в своем налаженном мире. Он вырастил троих детей, близок пенсионный возраст, ему пора на отдых, жизнь его обеспечена. Жены давно нет, но младшая дочь (Сима Ивасита) полностью заменила ее в хозяйстве, она отлично ведет дом. Но Шухей искренне любит ее, он понимает, что дочь должна иметь свою семью, а ему нужно будет смириться с одиночеством. Шухей сам устраивает брак своей любимицы...
Последний фильм Одзу.
IMDb || КиноПоиск-Тип релиза: BDRip 720p [Moshy]
Контейнер: MKV
Видео: x264/AVC, 986x720 at 23.976 fps, 11,9 Mbps
Аудио#1: Japanese: 48 kHz, AC3, 1.0 ch, 192 kbps
Аудио#2: Japanese: 48 kHz, FLAC, 1.0 ch, 212 kbps
Аудио#3: English: 48 kHz, AC3, 1.0 ch, 192 kbps |Commentary by David Bordwell
Формат субтитров: softsub (SRT)
Сэмпл

MediaInfo

General
Unique ID : 224518211675396936806100316857783480358 (0xA8E8A27B36B52B088EB797391302F026)
Complete name : K:\Вкус сайры\Sanma.no.aji.1962.Criterion.720p.x264-Moshy. rutracker.mkv
Format : Matroska
Format version : Version 2
File size : 9.89 GiB
Duration : 1h 53mn
Overall bit rate mode : Variable
Overall bit rate : 12.5 Mbps
Movie name : Release for RuTracker
Writing application : mkvmerge v5.0.1 ('Es ist Sommer') built on Nov 6 2011 16:23:40
Writing library : libebml v1.2.2 + libmatroska v1.3.0
Video
ID : 1
Format : AVC
Format/Info : Advanced Video Codec
Format profile : High@L4.1
Format settings, CABAC : Yes
Format settings, ReFrames : 11 frames
Codec ID : V_MPEG4/ISO/AVC
Duration : 1h 53mn
Width : 986 pixels
Height : 720 pixels
Display aspect ratio : 4:3
Original display aspect ratio : 1.370
Frame rate mode : Constant
Frame rate : 23.976 fps
Color space : YUV
Chroma subsampling : 4:2:0
Bit depth : 8 bits
Scan type : Progressive
Title : Sanma.no.aji.1962.Criterion.720p.x264-Moshy. rutracker
Writing library : x264 core 144 r2525kMod 40bb568
Encoding settings : cabac=1 / ref=11 / deblock=1:-3:-3 / analyse=0x3:0x133 / me=umh / subme=10 / psy=1 / fade_compensate=0.00 / psy_rd=1.15:0.00 / mixed_ref=1 / me_range=48 / chroma_me=1 / trellis=2 / 8x8dct=1 / cqm=0 / deadzone=21,11 / fast_pskip=0 / chroma_qp_offset=-6 / threads=6 / lookahead_threads=1 / sliced_threads=0 / nr=0 / decimate=0 / interlaced=0 / bluray_compat=0 / constrained_intra=0 / fgo=0 / bframes=14 / b_pyramid=2 / b_adapt=2 / b_bias=0 / direct=3 / weightb=1 / open_gop=0 / weightp=2 / keyint=250 / keyint_min=23 / scenecut=40 / intra_refresh=0 / rc_lookahead=60 / rc=crf / mbtree=0 / crf=18.8000 / qcomp=0.75 / qpmin=0 / qpmax=69 / qpstep=4 / vbv_maxrate=62500 / vbv_bufsize=78125 / crf_max=0.0 / nal_hrd=none / filler=0 / ip_ratio=1.10 / pb_ratio=1.10 / aq=1:0.60
Language : Japanese
Default : Yes
Forced : No
Audio #1
ID : 2
Format : AC-3
Format/Info : Audio Coding 3
Mode extension : CM (complete main)
Format settings, Endianness : Big
Codec ID : A_AC3
Duration : 1h 53mn
Bit rate mode : Constant
Bit rate : 192 Kbps
Channel(s) : 1 channel
Channel positions : Front: C
Sampling rate : 48.0 KHz
Bit depth : 16 bits
Compression mode : Lossy
Stream size : 156 MiB (2%)
Language : Japanese
Default : Yes
Forced : No
Audio #2
ID : 3
Format : FLAC
Format/Info : Free Lossless Audio Codec
Codec ID : A_FLAC
Duration : 1h 53mn
Bit rate mode : Variable
Channel(s) : 1 channel
Sampling rate : 48.0 KHz
Bit depth : 16 bits
Writing library : libFLAC 20080709 (UTC 2008-07-09)
Language : Japanese
Default : No
Forced : No
Audio #3
ID : 4
Format : AC-3
Format/Info : Audio Coding 3
Mode extension : CM (complete main)
Format settings, Endianness : Big
Codec ID : A_AC3
Duration : 1h 53mn
Bit rate mode : Constant
Bit rate : 192 Kbps
Channel(s) : 1 channel
Channel positions : Front: C
Sampling rate : 48.0 KHz
Bit depth : 16 bits
Compression mode : Lossy
Stream size : 156 MiB (2%)
Title : commentary
Language : English
Default : No
Forced : No
Text #1
ID : 5
Format : UTF-8
Codec ID : S_TEXT/UTF8
Codec ID/Info : UTF-8 Plain Text
Language : Russian
Default : Yes
Forced : No
Text #2
ID : 6
Format : UTF-8
Codec ID : S_TEXT/UTF8
Codec ID/Info : UTF-8 Plain Text
Language : English
Default : No
Forced : No
Menu
00:00:00.000 : en:Marriage prospect
00:06:23.674 : en:Young wives
00:13:35.439 : en:Household needs
00:18:30.901 : en:Family first
00:20:29.436 : en:Reunion
00:30:37.168 : en:"Still alive, eh?"
00:34:36.365 : en:The Gourd
00:39:58.312 : en:Torys Bar
00:45:04.702 : en:Private affairs
00:47:52.995 : en:Needs and wants
00:51:29.669 : en:Golf clubs
01:01:04.327 : en:Alone
01:09:51.478 : en:Not ready
01:15:58.887 : en:Help from Koichi
01:22:37.410 : en:Taken
01:26:33.688 : en:Meeting arranged
01:31:15.887 : en:Bad joke
01:35:50.327 : en:Wedding day
01:40:21.807 : en:"A funeral?"
01:47:08.547 : en:"I'm all alone..."

Скриншоты

BFI vs Criterion ___________________________



Показать сообщения:    

Текущее время: 11-Дек 11:04

Часовой пояс: UTC + 3


Вы не можете начинать темы
Вы не можете отвечать на сообщения
Вы не можете редактировать свои сообщения
Вы не можете удалять свои сообщения
Вы не можете голосовать в опросах
Вы не можете прикреплять файлы к сообщениям
Вы не можете скачивать файлы