Аккумулятор / Akumulator 1 (Ян Сверак / Jan Sverák) [1994, Чехия, фэнтези, комедия, HDTVRip 720p] VO + Sub Eng, Rus + Original Cze


 

[Цитировать]

Аккумулятор / Akumulator 1
Страна: Чехия
Жанр: фэнтези, комедия
Год выпуска: 1994
Продолжительность: 01:42:09
Перевод: Одноголосый закадровый
Cубтитры: английские, русские
Оригинальная аудиодорожка: чешский
Режиссер: Ян Сверак / Jan Sverák
В ролях: Петр Форман, Эдита Брыхта, Зденек Сверак, Болек Поливка, Ладислав Смоляк, Матей Форман, Маркета Фрослова, Иван Выскочил, Мариан Лабуда
Описание: Главный герой фильма землемер Олда, которого играет сын Милоша Формана Петр Форман, страдает роковой потерей энергии. Причина в его двойнике-тени, который обитает в мире, простирающемся по ту сторону экрана телевизора. Только любовь помогает молодому герою избавиться от сетей телевизионного демона и стать на собственные ноги...
Доп. информация:


Тип релиза: HDTVRip 720p | DON | sample
Контейнер: MKV
Видео: H.264/AVC, 1280x720, 16:9, 25.00fps, 5806 Kbps
Аудио #1 RUS: DD 2.0, 48 kHz, 224 kbps
Аудио #2 CZE: MP2 2.0, 48 kHz, 256 kbps
Формат субтитров: softsub (SRT)

MediaInfo

Complete name                            : Akumulator.1.1994.720p.HDTV.x264.rus.cze.mkv
Format                                   : Matroska
Format version                           : Version 4 / Version 2
File size                                : 4.58 GiB
Duration                                 : 1h 42mn
Overall bit rate                         : 6 413 Kbps
Movie name                               : Akumulátor 1 (1994)
Encoded date                             : UTC 2015-03-20 17:01:28
Writing application                      : mkvmerge v7.6.0 ('Garden of Dreams') 64bit built on Feb  8 2015 13:04:34
Writing library                          : libebml v1.3.1 + libmatroska v1.4.2
_STATISTICS_WRITING_APP                  : mkvmerge v7.6.0 ('Garden of Dreams') 64bit built on Feb  8 2015 13:04:34
_STATISTICS_WRITING_DATE_UTC             : 2015-03-20 17:01:28
_STATISTICS_TAGS                         : BPS DURATION NUMBER_OF_FRAMES NUMBER_OF_BYTES
DURATION                                 : 01:42:09.152000000
NUMBER_OF_FRAMES                         : 191536
NUMBER_OF_BYTES                          : 171616256
Video
ID                                       : 1
Format                                   : AVC
Format/Info                              : Advanced Video Codec
Format profile                           : High@L4.1
Format settings, CABAC                   : Yes
Format settings, ReFrames                : 9 frames
Codec ID                                 : V_MPEG4/ISO/AVC
Duration                                 : 1h 42mn
Bit rate                                 : 5 805 Kbps
Width                                    : 1 280 pixels
Height                                   : 720 pixels
Display aspect ratio                     : 16:9
Frame rate mode                          : Constant
Frame rate                               : 25.000 fps
Color space                              : YUV
Chroma subsampling                       : 4:2:0
Bit depth                                : 8 bits
Scan type                                : Progressive
Bits/(Pixel*Frame)                       : 0.252
Stream size                              : 4.14 GiB (91%)
Writing library                          : x264 core 142 r2431+42 c69a006 tMod [8-bit@all X86_64]
Encoding settings                        : cabac=1 / ref=9 / deblock=1:-3:-3 / analyse=0x3:0x133 / me=tesa / subme=10 / psy=1 / fade_compensate=0.00 / psy_rd=1.05:0.00 / mixed_ref=1 / me_range=24 / chroma_me=1 / trellis=2 / 8x8dct=1 / cqm=0 / deadzone=21,11 / fast_pskip=0 / chroma_qp_offset=-2 / threads=12 / lookahead_threads=2 / sliced_threads=0 / nr=0 / decimate=0 / interlaced=0 / bluray_compat=0 / constrained_intra=0 / fgo=0 / bframes=8 / b_pyramid=2 / b_adapt=2 / b_bias=0 / direct=3 / weightb=1 / open_gop=0 / weightp=2 / keyint=250 / keyint_min=25 / scenecut=40 / intra_refresh=0 / rc_lookahead=60 / rc=crf / mbtree=0 / crf=16.0000 / qcomp=0.65 / qpmin=0:0:0 / qpmax=69:69:69 / qpstep=4 / vbv_maxrate=62500 / vbv_bufsize=78125 / crf_max=0.0 / nal_hrd=none / filler=0 / ip_ratio=1.40 / pb_ratio=1.30 / aq=4:0.80 / aq-sensitivity=10.00 / aq-factor=1.00:1.00:1.00 / aq2=0 / aq3=0
Language                                 : Czech
Default                                  : Yes
Forced                                   : No
Audio #1
ID                                       : 2
Format                                   : AC-3
Format/Info                              : Audio Coding 3
Mode extension                           : CM (complete main)
Format settings, Endianness              : Big
Codec ID                                 : A_AC3
Duration                                 : 1h 42mn
Bit rate mode                            : Constant
Bit rate                                 : 224 Kbps
Channel(s)                               : 2 channels
Channel positions                        : Front: L R
Sampling rate                            : 48.0 KHz
Bit depth                                : 16 bits
Compression mode                         : Lossy
Stream size                              : 164 MiB (3%)
Title                                    : VO
Language                                 : Russian
Default                                  : Yes
Forced                                   : No
Audio #2
ID                                       : 3
Format                                   : MPEG Audio
Format version                           : Version 1
Format profile                           : Layer 2
Codec ID                                 : A_MPEG/L2
Codec ID/Hint                            : MP2
Duration                                 : 1h 42mn
Bit rate mode                            : Constant
Bit rate                                 : 256 Kbps
Channel(s)                               : 2 channels
Sampling rate                            : 48.0 KHz
Compression mode                         : Lossy
Stream size                              : 187 MiB (4%)
Language                                 : Czech
Default                                  : No
Forced                                   : No
Text #1
ID                                       : 4
Format                                   : UTF-8
Codec ID                                 : S_TEXT/UTF8
Codec ID/Info                            : UTF-8 Plain Text
Language                                 : English
Default                                  : No
Forced                                   : No
Text #2
ID                                       : 5
Format                                   : UTF-8
Codec ID                                 : S_TEXT/UTF8
Codec ID/Info                            : UTF-8 Plain Text
Title                                    : v1
Language                                 : Russian
Default                                  : No
Forced                                   : No
Text #3
ID                                       : 6
Format                                   : UTF-8
Codec ID                                 : S_TEXT/UTF8
Codec ID/Info                            : UTF-8 Plain Text
Title                                    : v2
Language                                 : Russian
Default                                  : No
Forced                                   : No



Показать сообщения:    

Текущее время: 10-Дек 17:47

Часовой пояс: UTC + 3


Вы не можете начинать темы
Вы не можете отвечать на сообщения
Вы не можете редактировать свои сообщения
Вы не можете удалять свои сообщения
Вы не можете голосовать в опросах
Вы не можете прикреплять файлы к сообщениям
Вы не можете скачивать файлы