Нетерпение чувств / Bad Timing (Николас Роуг / Nicolas Roeg) [1980, Великобритания, триллер, драма, детектив, BDRip 1080p] DVO + AVO + Sub Eng + Original Eng


 

[Цитировать]

Нетерпение чувств / Bad Timing
Страна: Великобритания
Жанр: триллер, драма, детектив
Год выпуска: 1980
Продолжительность: 02:02:09
Перевод: Профессиональный (двухголосый закадровый)
Перевод 2: Авторский (одноголосый закадровый) А Гаврилов
Cубтитры: английские
Оригинальная аудиодорожка: английский
Режиссер: Николас Роуг / Nicolas Roeg
В ролях: Арт Гарфанкел, Тереза Расселл, Харви Кейтель, Денхолм Эллиот, Дэниел Мэсси, Дэна Гиллеспи, Уильям Хуткинс, Юджин Липински, Джордж Рубисек, Стефан Грифф
Описание: Весна. Американку Милену Флаэрти привозят в городскую клинику с подозрением на попытку самоубийства. Инспектору Нетусилу поручено расследовать это дело.
Он допрашивает любовника Милены, профессора психологии Алекса Линдена. Алекс вспоминает историю своих взаимоотношений с Миленой. Где и при каких обстоятельствах безумная страсть могла перерасти в не менее безудержную ненависть?

Сэмпл: http://multi-up.com/1039117
Тип релиза: BDRip 1080p
Контейнер: MKV
Видео: MPEG4 Video (H264) 1920x822 (250:107) 23.976fps 15651 kbps
Аудио: Russian AC-3 / 2 ch / 48.0 KHz / 192 Kbps / Профессиональный двухголосый
Аудио 2: Russian AC-3 / 2 ch / 48.0 KHz / 192 Kbps / Андрей Гаврилов
Аудио 3: English FLAC / 2 ch / 48.0 KHz / 279 kbps / Original
Формат субтитров: softsub (SRT)

MediaInfo

General
Unique ID : 232300761513646030359166266314713664001 (0xAEC37FD02DD0850EA37172B6549B0A01)
Complete name : C:\Users\Вика\Desktop\Bad.Timing.1980.BDRip.1080p.mkv
Format : Matroska
Format version : Version 4 / Version 2
File size : 13.9 GiB
Duration : 2h 2mn
Overall bit rate mode : Variable
Overall bit rate : 16.3 Mbps
Encoded date : UTC 2015-03-19 08:10:13
Writing application : mkvmerge v7.4.0 ('Circles') 64bit built on Dec 12 2014 12:19:56
Writing library : libebml v1.3.0 + libmatroska v1.4.1
_STATISTICS_WRITING_APP : mkvmerge v7.4.0 ('Circles') 64bit built on Dec 12 2014 12:19:56
_STATISTICS_WRITING_DATE_UTC : 2015-03-19 08:10:13
_STATISTICS_TAGS : BPS DURATION NUMBER_OF_FRAMES NUMBER_OF_BYTES
DURATION : 02:02:09.376000000
NUMBER_OF_FRAMES : 229043
NUMBER_OF_BYTES : 175905024
Video
ID : 1
Format : AVC
Format/Info : Advanced Video Codec
Format profile : High@L4.1
Format settings, CABAC : Yes
Format settings, ReFrames : 5 frames
Codec ID : V_MPEG4/ISO/AVC
Duration : 2h 2mn
Width : 1 920 pixels
Height : 822 pixels
Display aspect ratio : 2.35:1
Frame rate mode : Constant
Frame rate : 23.976 fps
Color space : YUV
Chroma subsampling : 4:2:0
Bit depth : 8 bits
Scan type : Progressive
Writing library : x264 core 144 r0+2574 9abcd72 t_mod_Custom [8-bit@all X86_64]
Encoding settings : cabac=1 / ref=5 / deblock=1:-3:-3 / analyse=0x3:0x113 / me=umh / subme=10 / psy=1 / fade_compensate=0.00 / psy_rd=1.10:0.00 / mixed_ref=1 / me_range=32 / chroma_me=1 / trellis=2 / 8x8dct=1 / cqm=0 / deadzone=21,11 / fast_pskip=0 / chroma_qp_offset=-2 / threads=12 / lookahead_threads=3 / sliced_threads=0 / nr=0 / decimate=0 / interlaced=0 / bluray_compat=0 / constrained_intra=0 / fgo=0 / bframes=10 / b_pyramid=2 / b_adapt=2 / b_bias=0 / direct=3 / weightb=1 / open_gop=0 / weightp=2 / keyint=240 / keyint_min=23 / scenecut=40 / intra_refresh=0 / rc_lookahead=50 / rc=crf / mbtree=0 / crf=20.3000 / qcomp=0.75 / qpmin=0:0:0 / qpmax=69:69:69 / qpstep=4 / vbv_maxrate=62500 / vbv_bufsize=78125 / crf_max=0.0 / nal_hrd=none / filler=0 / ip_ratio=1.20 / pb_ratio=1.10 / aq=1:0.65 / aq-sensitivity=10.00 / aq-factor=1.00:1.00:1.00 / aq2=1:0.55 / aq2-sensitivity=15.00 / aq2-factor=1.00:1.00:1.00 / aq3=0
Language : English
Default : Yes
Forced : No
Color primaries : BT.709
Transfer characteristics : BT.709
Matrix coefficients : BT.709
_STATISTICS_WRITING_APP : mkvmerge v7.4.0 ('Circles') 64bit built on Dec 12 2014 12:19:56
_STATISTICS_WRITING_DATE_UTC : 2015-03-19 08:10:13
_STATISTICS_TAGS : BPS DURATION NUMBER_OF_FRAMES NUMBER_OF_BYTES
DURATION : 02:02:09.364000000
NUMBER_OF_FRAMES : 175729
NUMBER_OF_BYTES : 14338491209
Audio #1
ID : 2
Format : AC-3
Format/Info : Audio Coding 3
Mode extension : CM (complete main)
Format settings, Endianness : Big
Codec ID : A_AC3
Duration : 2h 2mn
Bit rate mode : Constant
Bit rate : 192 Kbps
Channel(s) : 2 channels
Channel positions : Front: L R
Sampling rate : 48.0 KHz
Bit depth : 16 bits
Compression mode : Lossy
Stream size : 168 MiB (1%)
Title : DVO
Language : Russian
Default : Yes
Forced : No
Audio #2
ID : 3
Format : AC-3
Format/Info : Audio Coding 3
Mode extension : CM (complete main)
Format settings, Endianness : Big
Codec ID : A_AC3
Duration : 2h 2mn
Bit rate mode : Constant
Bit rate : 192 Kbps
Channel(s) : 2 channels
Channel positions : Front: L R
Sampling rate : 48.0 KHz
Bit depth : 16 bits
Compression mode : Lossy
Stream size : 168 MiB (1%)
Title : AVO (А. Гаврилов)
Language : Russian
Default : No
Forced : No
Audio #3
ID : 4
Format : FLAC
Format/Info : Free Lossless Audio Codec
Codec ID : A_FLAC
Duration : 2h 2mn
Bit rate mode : Variable
Channel(s) : 2 channels
Sampling rate : 48.0 KHz
Bit depth : 16 bits
Writing library : libFLAC 1.2.1 (UTC 2007-09-17)
Language : English
Default : No
Forced : No
Text
ID : 5
Format : UTF-8
Codec ID : S_TEXT/UTF8
Codec ID/Info : UTF-8 Plain Text
Language : English
Default : No
Forced : No
Menu
00:00:00.000 : en:00:00:00.000
00:06:18.378 : en:00:06:18.378
00:15:51.951 : en:00:15:51.951
00:28:29.708 : en:00:28:29.708
00:34:40.078 : en:00:34:40.078
00:43:54.632 : en:00:43:54.632
00:54:57.294 : en:00:54:57.294
01:09:40.176 : en:01:09:40.176
01:23:18.827 : en:01:23:18.827
01:39:45.980 : en:01:39:45.980
01:46:57.411 : en:01:46:57.411
01:55:12.364 : en:01:55:12.364

Скриншоты




Показать сообщения:    

Текущее время: 03-Дек 22:43

Часовой пояс: UTC + 3


Вы не можете начинать темы
Вы не можете отвечать на сообщения
Вы не можете редактировать свои сообщения
Вы не можете удалять свои сообщения
Вы не можете голосовать в опросах
Вы не можете прикреплять файлы к сообщениям
Вы не можете скачивать файлы