Нетерпение чувств / Bad Timing (Николас Роуг / Nicolas Roeg) [1980, Великобритания, триллер, драма, детектив, BDRemux 1080p] DVO + AVO + Sub Eng + Original Eng


 

[Цитировать]

Нетерпение чувств / Bad Timing
Страна: Великобритания
Жанр: триллер, драма, детектив
Год выпуска: 1980
Продолжительность: 02:02:09
Перевод: Профессиональный (двухголосый закадровый)
Перевод 2: Авторский (одноголосый закадровый) А Гаврилов
Cубтитры: английские
Оригинальная аудиодорожка: английский
Режиссер: Николас Роуг / Nicolas Roeg
В ролях: Арт Гарфанкел, Тереза Расселл, Харви Кейтель, Денхолм Эллиот, Дэниел Мэсси, Дэна Гиллеспи, Уильям Хуткинс, Юджин Липински, Джордж Рубисек, Стефан Грифф
Описание: Весна. Американку Милену Флаэрти привозят в городскую клинику с подозрением на попытку самоубийства. Инспектору Нетусилу поручено расследовать это дело.
Он допрашивает любовника Милены, профессора психологии Алекса Линдена. Алекс вспоминает историю своих взаимоотношений с Миленой. Где и при каких обстоятельствах безумная страсть могла перерасти в не менее безудержную ненависть?

Сэмпл: http://multi-up.com/1039735
Тип релиза: BDRemux 1080p
Контейнер: MKV
Видео: MPEG4 Video (H264) 1920x1080 23.976fps 20999 kbps
Аудио: Russian AC-3 / 2 ch / 48.0 KHz / 192 Kbps / Профессиональный двухголосый
Аудио 2: Russian AC-3 / 2 ch / 48.0 KHz / 192 Kbps / Андрей Гаврилов
Аудио 3: English PCM / 2 ch / 48.0 KHz / 1536 kbps / Original
Формат субтитров: softsub (SRT)

MediaInfo

General
Unique ID : 206227904668249477074868957550695266439 (0x9B260CB8EF51FF7EBF368FE7021DB887)
Complete name : C:\Users\Вика\Desktop\Bad.Timing.1980.BDRemux.1080p.mkv
Format : Matroska
Format version : Version 4 / Version 2
File size : 19.6 GiB
Duration : 2h 2mn
Overall bit rate mode : Variable
Overall bit rate : 22.9 Mbps
Encoded date : UTC 2015-03-19 07:45:52
Writing application : mkvmerge v7.4.0 ('Circles') 64bit built on Dec 12 2014 12:19:56
Writing library : libebml v1.3.0 + libmatroska v1.4.1
DURATION : 02:02:09.376000000
NUMBER_OF_FRAMES : 229043
NUMBER_OF_BYTES : 175905024
_STATISTICS_WRITING_APP : mkvmerge v7.4.0 ('Circles') 64bit built on Dec 12 2014 12:19:56
_STATISTICS_WRITING_DATE_UTC : 2015-03-19 07:45:52
_STATISTICS_TAGS : BPS DURATION NUMBER_OF_FRAMES NUMBER_OF_BYTES
Video
ID : 1
Format : AVC
Format/Info : Advanced Video Codec
Format profile : High@L4.1
Format settings, CABAC : Yes
Format settings, ReFrames : 4 frames
Format settings, GOP : M=3, N=18
Codec ID : V_MPEG4/ISO/AVC
Duration : 2h 2mn
Bit rate mode : Variable
Maximum bit rate : 32.0 Mbps
Width : 1 920 pixels
Height : 1 080 pixels
Display aspect ratio : 16:9
Frame rate mode : Constant
Frame rate : 23.976 fps
Standard : NTSC
Color space : YUV
Chroma subsampling : 4:2:0
Bit depth : 8 bits
Scan type : Progressive
Default : Yes
Forced : No
Color primaries : BT.709
Transfer characteristics : BT.709
Matrix coefficients : BT.709
Audio #1
ID : 2
Format : AC-3
Format/Info : Audio Coding 3
Mode extension : CM (complete main)
Format settings, Endianness : Big
Codec ID : A_AC3
Duration : 2h 2mn
Bit rate mode : Constant
Bit rate : 192 Kbps
Channel(s) : 2 channels
Channel positions : Front: L R
Sampling rate : 48.0 KHz
Bit depth : 16 bits
Compression mode : Lossy
Stream size : 168 MiB (1%)
Title : DVO
Language : Russian
Default : Yes
Forced : No
Audio #2
ID : 3
Format : AC-3
Format/Info : Audio Coding 3
Mode extension : CM (complete main)
Format settings, Endianness : Big
Codec ID : A_AC3
Duration : 2h 2mn
Bit rate mode : Constant
Bit rate : 192 Kbps
Channel(s) : 2 channels
Channel positions : Front: L R
Sampling rate : 48.0 KHz
Bit depth : 16 bits
Compression mode : Lossy
Stream size : 168 MiB (1%)
Title : AVO (А. Гаврилов)
Language : Russian
Default : No
Forced : No
Audio #3
ID : 4
Format : PCM
Format settings, Endianness : Big
Codec ID : A_PCM/INT/BIG
Duration : 2h 2mn
Bit rate mode : Constant
Channel(s) : 2 channels
Sampling rate : 48.0 KHz
Bit depth : 16 bits
Language : English
Default : No
Forced : No
Text
ID : 5
Format : UTF-8
Codec ID : S_TEXT/UTF8
Codec ID/Info : UTF-8 Plain Text
Language : English
Default : No
Forced : No
Menu
00:00:00.000 : :Глава 1
00:06:18.378 : :Глава 2
00:15:51.951 : :Глава 3
00:28:29.708 : :Глава 4
00:34:40.078 : :Глава 5
00:43:54.632 : :Глава 6
00:54:57.294 : :Глава 7
01:09:40.176 : :Глава 8
01:23:18.827 : :Глава 9
01:39:45.980 : :Глава 10
01:46:57.411 : :Глава 11
01:55:12.363 : :Глава 12
02:02:00.313 : :Глава 13

Скриншоты




Показать сообщения:    

Текущее время: 03-Дек 22:42

Часовой пояс: UTC + 3


Вы не можете начинать темы
Вы не можете отвечать на сообщения
Вы не можете редактировать свои сообщения
Вы не можете удалять свои сообщения
Вы не можете голосовать в опросах
Вы не можете прикреплять файлы к сообщениям
Вы не можете скачивать файлы