Остров / Крюк / Seom / The Isle (Ким Ки-Дук / Kim Ki-Duk) [2000, Южная Корея, драма, BDRip 1080p] AVO (Сербин) + MVO + Sub Rus, Eng + Original Kor


 

[Цитировать]

Остров / Крюк / Seom / The Isle
Страна: Южная Корея
Жанр: драма
Год выпуска: 2000
Продолжительность: 01:30:42
Перевод: Авторский (одноголосый закадровый) Сербин
Перевод 2: Профессиональный (многоголосый закадровый)
Cубтитры: русские, english
Оригинальная аудиодорожка: Корейский
Режиссер: Ким Ки-Дук / Kim Ki-Duk
В ролях: Йунь Су, Йусук Ким, Сунь-хи Парк, Яе-хьон Джо, Ханг-Сеон Янг, Ха Ким, Вон Со
Описание: По безмятежной глади озера дрейфуют плавучие рыбацкие домики, их хозяйка, загадочная и молчаливая Хви-Джин, днем продает рыбакам еду, а ночью — свое тело. Она покорно терпит издевательства своих гостей, не подозревающих, что их жизнь целиком зависит от ее воли и капризов. Но когда в одном из домиков поселяется бывший полицейский, убивший свою подругу, между ним и Хви-Джин возникает странная связь, непреодолимое влечение, которое можно удовлетворить лишь жестоким сексом на грани безумия. Считая себя хозяйкой нового гостя, Хви-Джин устраняет всё, что мешает ей быть рядом со своим любовником, который раз за разом пытается сбежать от нее. Они стремятся друг к другу, как рыбы к приманке, не понимая, что впереди их ждет неминуемая трагедия…
Доп. информация:
За дорожку с Сербиным отдельное спасибо hobbie
Сэмпл: http://multi-up.com/1038648
Тип релиза: BDRip 1080p
Контейнер: MKV
Видео: 1920х1080(16:9), 23.976 fps, x264@L4.1, 8889 kbps
Аудио 1: Russian: 48 kHz, AC3, 5.1, 448 kbps - Сербин
Аудио 2: Russian: 48 kHz, AC3, 2.0, 192 kbps - MVO
Аудио 3: Korean: 48 kHz, DTS, 5.1, 1509 kbps
Формат субтитров: softsub (SRT)

MediaInfo

Общее
Уникальный идентификатор : 189612317682988408986984425104438348958 (0x8EA601091865A2209A0739DCE42E4C9E)
Полное имя : D:\VIDEO\РЕЛИЗЫ\The Isle.Seom.2000.LIMITED.1080p.BluRay x264-GiMCHi.Rus.Kor.mkv
Формат : Matroska
Версия формата : Version 2
Размер файла : 6,96 Гбайт
Продолжительность : 1 ч. 30 м.
Общий поток : 11,0 Мбит/сек
Дата кодирования : UTC 2015-03-15 17:56:42
Программа кодирования : mkvmerge v4.5.0 ('Speed of Light') сборка от Feb 1 2011 02:10:32
Библиотека кодирования : libebml v1.2.0 + libmatroska v1.1.0
Видео
Идентификатор : 1
Формат : AVC
Формат/Информация : Advanced Video Codec
Профиль формата : High@L4.1
Параметр CABAC формата : Да
Параметр ReFrames формата : 4 кадра
Идентификатор кодека : V_MPEG4/ISO/AVC
Продолжительность : 1 ч. 30 м.
Битрейт : 8889 Кбит/сек
Ширина : 1920 пикселей
Высота : 1080 пикселей
Соотношение сторон : 16:9
Режим частоты кадров : Постоянный
Частота кадров : 23,976 кадра/сек
Цветовое пространство : YUV
Субдискретизация насыщенности : 4:2:0
Битовая глубина : 8 бит
Тип развёртки : Прогрессивная
Бит/(Пиксели*Кадры) : 0.179
Размер потока : 5,46 Гбайт (79%)
Библиотека кодирования : x264 core 144 r2525 40bb568
Настройки программы : cabac=1 / ref=4 / deblock=1:0:0 / analyse=0x3:0x133 / me=umh / subme=7 / psy=1 / psy_rd=1.00:0.00 / mixed_ref=1 / me_range=16 / chroma_me=1 / trellis=1 / 8x8dct=1 / cqm=0 / deadzone=21,11 / fast_pskip=0 / chroma_qp_offset=-2 / threads=12 / lookahead_threads=2 / sliced_threads=0 / nr=0 / decimate=1 / interlaced=0 / bluray_compat=0 / constrained_intra=0 / bframes=3 / b_pyramid=2 / b_adapt=2 / b_bias=0 / direct=3 / weightb=1 / open_gop=0 / weightp=2 / keyint=240 / keyint_min=23 / scenecut=40 / intra_refresh=0 / rc_lookahead=50 / rc=2pass / mbtree=1 / bitrate=8889 / ratetol=1.0 / qcomp=0.60 / qpmin=0 / qpmax=69 / qpstep=4 / cplxblur=20.0 / qblur=0.5 / ip_ratio=1.40 / aq=1:1.00
Язык : Russian
Default : Да
Forced : Нет
Аудио #1
Идентификатор : 2
Формат : AC-3
Формат/Информация : Audio Coding 3
Расширение режима : CM (complete main)
Параметр Endianness формата : Big
Идентификатор кодека : A_AC3
Продолжительность : 1 ч. 30 м.
Вид битрейта : Постоянный
Битрейт : 448 Кбит/сек
Каналы : 6 каналов
Расположение каналов : Front: L C R, Side: L R, LFE
Частота : 48,0 КГц
Битовая глубина : 16 бит
Метод сжатия : С потерями
Размер потока : 289 Мбайт (4%)
Заголовок : Сербин
Язык : Russian
Default : Да
Forced : Нет
Аудио #2
Идентификатор : 3
Формат : AC-3
Формат/Информация : Audio Coding 3
Расширение режима : CM (complete main)
Параметр Endianness формата : Big
Идентификатор кодека : A_AC3
Продолжительность : 1 ч. 30 м.
Вид битрейта : Постоянный
Битрейт : 192 Кбит/сек
Каналы : 2 канала
Расположение каналов : Front: L R
Частота : 48,0 КГц
Битовая глубина : 16 бит
Метод сжатия : С потерями
Размер потока : 124 Мбайт (2%)
Заголовок : MVO
Язык : Russian
Default : Нет
Forced : Нет
Аудио #3
Идентификатор : 4
Формат : DTS
Формат/Информация : Digital Theater Systems
Режим : 16
Параметр Endianness формата : Big
Идентификатор кодека : A_DTS
Продолжительность : 1 ч. 30 м.
Вид битрейта : Постоянный
Битрейт : 1509 Кбит/сек
Каналы : 6 каналов
Расположение каналов : Front: L C R, Side: L R, LFE
Частота : 48,0 КГц
Битовая глубина : 24 бит
Метод сжатия : С потерями
Задержка видео : 11 мс.
Размер потока : 974 Мбайт (14%)
Язык : Korean
Default : Нет
Forced : Нет
Текст #1
Идентификатор : 5
Формат : UTF-8
Идентификатор кодека : S_TEXT/UTF8
Идентификатор кодека/Информация : UTF-8 Plain Text
Язык : Russian
Default : Нет
Forced : Нет
Текст #2
Идентификатор : 6
Формат : UTF-8
Идентификатор кодека : S_TEXT/UTF8
Идентификатор кодека/Информация : UTF-8 Plain Text
Язык : English
Default : Нет
Forced : Нет

Скриншоты








Показать сообщения:    

Текущее время: 09-Дек 16:32

Часовой пояс: UTC + 3


Вы не можете начинать темы
Вы не можете отвечать на сообщения
Вы не можете редактировать свои сообщения
Вы не можете удалять свои сообщения
Вы не можете голосовать в опросах
Вы не можете прикреплять файлы к сообщениям
Вы не можете скачивать файлы