Волшебная девочка / Magical Girl (Карлос Вермут / Carlos Vermut) [2014, Испания, драма, триллер, BDRip 720p] AVO (Антон Алексеев) + Original Spa


 

[Цитировать]

Волшебная девочка / Magical Girl
Страна: Испания
Студия: Films Distribution, Sabre Producciones, Canal+ España
Жанр: драма, триллер
Год выпуска: 2014
Продолжительность: 02:06:55
Перевод: Авторский (одноголосый закадровый) Антон Алексеев
Cубтитры: нет
Оригинальная аудиодорожка: испанский
Режиссер: Карлос Вермут / Carlos Vermut
В ролях: Хавьер Ботет, Барбара Ленни, Хосе Сакристан, Луис Бермехо, Люсия Пойан, Марисоль Мембрильо, Элисабет Хелаберт, Исраэль Элехальде, Хулио Арройо, Микель Инсуа, Тереса Сория Руано
Описание: 12-летняя Алисия может не стесняясь попросить отца о сигарете и глотке джина. Для нее не существует понятия «слишком рано», потому что нет слова «потом»: девочка тяжело больна. Только костюм любимого японского анимэшного персонажа Юкико может доставить ей настоящую радость. Но волшебное платье стоит реальных денег, которые на фоне всеобщего кризиса кажутся безработному отцу запредельной суммой. Когда он случайно знакомится с богатой красавицей Барбарой, сгорающей от депрессии в холодном интерьере пустынной квартиры, в его голове рождается план – не менее страшный, чем плата за него. В борьбе между инстинктами и разумом герои перешагивают границы собственной человечности, а Карлос Вермут – границы жанров, создавая свою вселенную из эксцентричных образов японских манга и комиксов Чарльза Бернса, отсылок к Луису Бунюэлю и Карлосу Сауре.

Тип релиза: BDRip 720p с исходника
Контейнер: MKV
Видео: MPEG-4 AVC, 4820 Кбит/с, 1280x538, 24,000 fps
Аудио: Rus, DTS, 1510 kb/s (6 ch), 48 kHz
Аудио 2: Eng, DTS, 1510 kb/s (6 ch), 48 kHz

MediaInfo

Format : Matroska
Format version : Version 4 / Version 2
File size : 7.09 GiB
Duration : 2h 6mn
Overall bit rate : 7 997 Kbps
Movie name : Волшебная девочка. (Tonik)
Encoded date : UTC 2015-03-15 12:56:23
Writing application : mkvmerge v7.1.0 ('Good Love') 64bit built on Jul 27 2014 13:06:55
Writing library : libebml v1.3.0 + libmatroska v1.4.1
DURATION : 02:06:55.499000000
NUMBER_OF_FRAMES : 713953
NUMBER_OF_BYTES : 1436473576
_STATISTICS_WRITING_APP : mkvmerge v7.1.0 ('Good Love') 64bit built on Jul 27 2014 13:06:55
_STATISTICS_WRITING_DATE_UTC : 2015-03-15 12:56:23
_STATISTICS_TAGS : BPS DURATION NUMBER_OF_FRAMES NUMBER_OF_BYTES
Video
ID : 1
Format : AVC
Format/Info : Advanced Video Codec
Format profile : High@L4.1
Format settings, CABAC : Yes
Format settings, ReFrames : 12 frames
Codec ID : V_MPEG4/ISO/AVC
Duration : 2h 6mn
Bit rate : 4 820 Kbps
Width : 1 280 pixels
Height : 538 pixels
Display aspect ratio : 2.40:1
Frame rate mode : Constant
Frame rate : 24.000 fps
Color space : YUV
Chroma subsampling : 4:2:0
Bit depth : 8 bits
Scan type : Progressive
Bits/(Pixel*Frame) : 0.292
Stream size : 4.27 GiB (60%)
Title : Tonik
Writing library : x264 core 146 r2538 121396c
Encoding settings : cabac=1 / ref=12 / deblock=1:-3:-3 / analyse=0x3:0x133 / me=umh / subme=11 / psy=1 / psy_rd=1.00:0.00 / mixed_ref=1 / me_range=32 / chroma_me=1 / trellis=2 / 8x8dct=1 / cqm=0 / deadzone=21,11 / fast_pskip=0 / chroma_qp_offset=-2 / threads=12 / lookahead_threads=3 / sliced_threads=0 / nr=0 / decimate=1 / interlaced=0 / bluray_compat=0 / constrained_intra=0 / bframes=11 / b_pyramid=2 / b_adapt=2 / b_bias=0 / direct=1 / weightb=1 / open_gop=0 / weightp=2 / keyint=250 / keyint_min=24 / scenecut=40 / intra_refresh=0 / rc=crf / mbtree=0 / crf=15.0 / qcomp=0.60 / qpmin=0 / qpmax=69 / qpstep=4 / ip_ratio=1.40 / pb_ratio=1.30 / aq=1:1.00
Language : Spanish
Default : Yes
Forced : No
DURATION : 02:06:55.500000000
NUMBER_OF_FRAMES : 182772
NUMBER_OF_BYTES : 4736506064
_STATISTICS_WRITING_APP : mkvmerge v7.1.0 ('Good Love') 64bit built on Jul 27 2014 13:06:55
_STATISTICS_WRITING_DATE_UTC : 2015-03-15 12:56:23
_STATISTICS_TAGS : BPS DURATION NUMBER_OF_FRAMES NUMBER_OF_BYTES
Audio #1
ID : 2
Format : DTS
Format/Info : Digital Theater Systems
Mode : 16
Format settings, Endianness : Big
Codec ID : A_DTS
Duration : 2h 6mn
Bit rate mode : Constant
Bit rate : 1 509 Kbps
Channel(s) : 6 channels
Channel positions : Front: L C R, Side: L R, LFE
Sampling rate : 48.0 KHz
Bit depth : 16 bits
Compression mode : Lossy
Stream size : 1.34 GiB (19%)
Title : Антон Алексеев
Language : Russian
Default : Yes
Forced : No
Audio #2
ID : 3
Format : DTS
Format/Info : Digital Theater Systems
Mode : 16
Format settings, Endianness : Big
Codec ID : A_DTS
Duration : 2h 6mn
Bit rate mode : Constant
Bit rate : 1 509 Kbps
Channel(s) : 6 channels
Channel positions : Front: L C R, Side: L R, LFE
Sampling rate : 48.0 KHz
Bit depth : 16 bits
Compression mode : Lossy
Stream size : 1.34 GiB (19%)
Language : Spanish
Default : No
Forced : No

Скриншоты




Показать сообщения:    

Текущее время: 11-Дек 03:17

Часовой пояс: UTC + 3


Вы не можете начинать темы
Вы не можете отвечать на сообщения
Вы не можете редактировать свои сообщения
Вы не можете удалять свои сообщения
Вы не можете голосовать в опросах
Вы не можете прикреплять файлы к сообщениям
Вы не можете скачивать файлы