Обход Мика / Meek's Cutoff (Келли Райхардт / Kelly Reichardt) [2010, США, драма, вестерн, BDRip 720p] AVO (Сербин) + VO (den904) + Original (Eng) + Sub (Rus, Eng)


 

[Цитировать]

Обход Мика / Meek's Cutoff
Год выпуска: 2010
Страна: США
Жанр: драма, вестерн
Продолжительность: 01:42:41
Перевод №1: авторский одноголосный закадровый (Юрий Сербин)
Перевод №2: одноголосный закадровый (den904)
Cубтитры: русские, английские
Оригинальная аудиодорожка: английская
Оглавление: 18 англоязычных глав
Режиссёр: Келли Райхардт /Kelly Reichardt/
В ролях: Мишель Уильямс /Michelle Williams/, Брюс Гринвуд /Bruce Greenwood/, Уилл Пэттон /Will Patton/, Зои Казан /Zoe Kazan/, Пол Дано /Paul Dano/, Ширли Хендерсон /Shirley Henderson/, Нил Хафф /Neal Huff/, Томми Нельсон /Tommy Nelson/, Род Рондо /Rod Rondeaux/
Описание:
Фильм повествует о временах покорения Дикого Запада, когда в 1845 году по так называемой Орегонской тропе шло большое переселение с восточного на западное побережье Америки. В основе сюжета лежит рассказ о том, как три семьи переселенцев отстают от основного обоза и нанимают проводника Стивена Мика, прощелыгу и хвастуна с сотней фантастических историй в запасе, чтоб с его помощью кратчайшим путем добраться до гор и нагнать основную группу. В итоге, они оказываются где-то на бескрайнем плато, полностью без пищи, воды и какой-либо надежды на спасение...
Дополнительная информация:
IMDB User Rating→: 6.5/10 (7,163 votes)
Рейтинг фильма КиноПоиск.Ru→: 6.306 (375 голосов)
Качество: BDRip (by EA)
Контейнер: MKV
Видеопоток: 960x720p, 23.976 fps, x264 ~8264 kbps
Аудиопоток №1 (RUS): DD 5.1, 48 kHz, 640 kbps | авторский одноголосный закадровый (Юрий Сербин)
Аудиопоток №2 (RUS): DD 2.0, 48 kHz, 192 kbps | одноголосный закадровый (den904)
Аудиопоток №3 (ENG): DD 5.1, 48 kHz, 640 kbps
Субтитры №1 (RUS): SRT/UTF8 | Василий Миловидов
Субтитры №2 (RUS): SRT/UTF8 | lingua.pura
Субтитры №3 (ENG): SRT/UTF8
Субтитры №3 (ENG): SRT/UTF8 | SDH
Сэмпл: Яндекс.Диск→, multi-up→

x264 Log

x264 [info]: frame I:   785 Avg QP:14.98  size:158507
x264 [info]: frame P: 27216 Avg QP:16.16  size: 63325
x264 [info]: frame B:119717 Avg QP:16.38  size: 38978
x264 [info]: consecutive B-frames:  1.0%  0.8%  3.6% 11.8% 14.0% 48.9%  7.9%  3.8%  2.6%  3.3%  2.3%
Encoded 147718 frames, 4.085 fps, 8458.61 kb/s, 6212.5 MB

MediaInfo

General
Unique ID                   : 189188615181512456401599586280168784753 (0x8E5466E3AC6E8136804D3EA3124C8371)
Complete name               : Meek's.Cutoff.2010.720p.BDRip.x264.DD.SRT-EA.mkv
Format                      : Matroska
Format version              : Version 4 / Version 2
File size                   : 7.12 GiB
Duration                    : 1h 42mn
Overall bit rate            : 9 933 Kbps
Movie name                  : Meek's Cutoff (2010) 720p BDRip by EA
Encoded date                : UTC 2015-03-13 14:54:42
Writing application         : mkvmerge v7.5.0 ('Glass Culture') 64bit built on Jan  4 2015 16:48:44
Writing library             : libebml v1.3.1 + libmatroska v1.4.2
DURATION                    : 01:42:41.088000000
NUMBER_OF_FRAMES            : 192534
NUMBER_OF_BYTES             : 147866112
_STATISTICS_WRITING_APP     : mkvmerge v7.5.0 ('Glass Culture') 64bit built on Jan  4 2015 16:48:44
_STATISTICS_WRITING_DATE_UT : 2015-03-13 14:54:42
_STATISTICS_TAGS            : BPS DURATION NUMBER_OF_FRAMES NUMBER_OF_BYTES
Video
ID                          : 1
Format                      : AVC
Format/Info                 : Advanced Video Codec
Format profile              : High@L4.1
Format settings, CABAC      : Yes
Format settings, ReFrames   : 12 frames
Codec ID                    : V_MPEG4/ISO/AVC
Duration                    : 1h 42mn
Bit rate                    : 8 264 Kbps
Width                       : 960 pixels
Height                      : 720 pixels
Display aspect ratio        : 4:3
Frame rate mode             : Constant
Frame rate                  : 23.976 fps
Color space                 : YUV
Chroma subsampling          : 4:2:0
Bit depth                   : 8 bits
Scan type                   : Progressive
Bits/(Pixel*Frame)          : 0.499
Stream size                 : 5.93 GiB (83%)
Title                       : 960x720, 23.976 fps, x264 ~8459 kbps
Writing library             : x264 core 142 r2431+42 c69a006 tMod [8-bit@all X86_64]
Encoding settings           : cabac=1 / ref=12 / deblock=1:-3:-3 / analyse=0x3:0x133 / me=umh / subme=10 / psy=1 / fade_compensate=0.00 / psy_rd=1.05:0.00 / mixed_ref=1 / me_range=32 / chroma_me=1 / trellis=2 / 8x8dct=1 / cqm=0 / deadzone=6,6 / fast_pskip=0 / chroma_qp_offset=-2 / threads=12 / lookahead_threads=3 / sliced_threads=0 / nr=0 / decimate=0 / interlaced=0 / bluray_compat=0 / constrained_intra=0 / fgo=0 / bframes=10 / b_pyramid=2 / b_adapt=2 / b_bias=0 / direct=3 / weightb=1 / open_gop=0 / weightp=2 / keyint=240 / keyint_min=23 / scenecut=40 / intra_refresh=0 / rc_lookahead=60 / rc=crf / mbtree=0 / crf=16.2000 / qcomp=0.75 / qpmin=0:0:0 / qpmax=69:69:69 / qpstep=4 / vbv_maxrate=62500 / vbv_bufsize=78125 / crf_max=0.0 / nal_hrd=none / filler=0 / ip_ratio=1.20 / pb_ratio=1.10 / aq=1:0.85 / aq-sensitivity=10.00 / aq-factor=1.00:1.00:1.00 / aq2=1:0.75 / aq2-sensitivity=15.00 / aq2-factor=1.00:1.00:1.00 / aq3=0
Language                    : English
Default                     : Yes
Forced                      : No
DURATION                    : 01:42:41.072000000
NUMBER_OF_FRAMES            : 147718
NUMBER_OF_BYTES             : 6514261245
_STATISTICS_WRITING_APP     : mkvmerge v7.5.0 ('Glass Culture') 64bit built on Jan  4 2015 16:48:44
_STATISTICS_WRITING_DATE_UT : 2015-03-13 14:54:42
_STATISTICS_TAGS            : BPS DURATION NUMBER_OF_FRAMES NUMBER_OF_BYTES
Audio #1
ID                          : 2
Format                      : AC-3
Format/Info                 : Audio Coding 3
Mode extension              : CM (complete main)
Format settings, Endianness : Big
Codec ID                    : A_AC3
Duration                    : 1h 42mn
Bit rate mode               : Constant
Bit rate                    : 640 Kbps
Channel(s)                  : 6 channels
Channel positions           : Front: L C R, Side: L R, LFE
Sampling rate               : 48.0 KHz
Bit depth                   : 16 bits
Compression mode            : Lossy
Stream size                 : 470 MiB (6%)
Title                       : RUS AVO Ю.Сербин DD 5.1, 48 kHz, 640 kbps
Language                    : Russian
Default                     : Yes
Forced                      : No
Audio #2
ID                          : 3
Format                      : AC-3
Format/Info                 : Audio Coding 3
Mode extension              : CM (complete main)
Format settings, Endianness : Big
Codec ID                    : A_AC3
Duration                    : 1h 42mn
Bit rate mode               : Constant
Bit rate                    : 192 Kbps
Channel(s)                  : 2 channels
Channel positions           : Front: L R
Sampling rate               : 48.0 KHz
Bit depth                   : 16 bits
Compression mode            : Lossy
Stream size                 : 141 MiB (2%)
Title                       : RUS VO den904 DD 2.0, 48 kHz, 192 kbps
Language                    : Russian
Default                     : No
Forced                      : No
Audio #3
ID                          : 4
Format                      : AC-3
Format/Info                 : Audio Coding 3
Mode extension              : CM (complete main)
Format settings, Endianness : Big
Codec ID                    : A_AC3
Duration                    : 1h 42mn
Bit rate mode               : Constant
Bit rate                    : 640 Kbps
Channel(s)                  : 6 channels
Channel positions           : Front: L C R, Side: L R, LFE
Sampling rate               : 48.0 KHz
Bit depth                   : 16 bits
Compression mode            : Lossy
Stream size                 : 470 MiB (6%)
Title                       : ENG DD 5.1, 48 kHz, 640 kbps
Language                    : English
Default                     : No
Forced                      : No
Text #1
ID                          : 5
Format                      : UTF-8
Codec ID                    : S_TEXT/UTF8
Codec ID/Info               : UTF-8 Plain Text
Title                       : RUS В.Миловидов SRT
Language                    : Russian
Default                     : No
Forced                      : No
Text #2
ID                          : 6
Format                      : UTF-8
Codec ID                    : S_TEXT/UTF8
Codec ID/Info               : UTF-8 Plain Text
Title                       : RUS lingua.pura  SRT
Language                    : Russian
Default                     : No
Forced                      : No
Text #3
ID                          : 7
Format                      : UTF-8
Codec ID                    : S_TEXT/UTF8
Codec ID/Info               : UTF-8 Plain Text
Title                       : ENG SRT
Language                    : English
Default                     : No
Forced                      : No
Text #4
ID                          : 8
Format                      : UTF-8
Codec ID                    : S_TEXT/UTF8
Codec ID/Info               : UTF-8 Plain Text
Title                       : ENG SDH SRT
Language                    : English
Default                     : No
Forced                      : No
Menu
00:00:00.000                : en:Oregon, 1845
00:06:10.661                : en:"Hell's Full of Bears"
00:11:18.010                : en:Patience
00:17:19.329                : en:Morning
00:22:08.368                : en:Bread
00:26:54.654                : en:Water
00:31:31.347                : en:Two Shots
00:38:33.561                : en:"Finding Our Way"
00:42:22.706                : en:Riches
00:47:38.397                : en:Heathen
00:53:38.798                : en:Offering
00:59:41.202                : en:"How Much Farther?"
01:06:40.663                : en:Sunset
01:12:30.012                : en:Steep Grade
01:20:37.249                : en:"I'd Be Wary"
01:24:26.019                : en:Trust
01:30:20.998                : en:"We're Close"
01:37:28.884                : en:End Credits

Скриншоты


Source vs. EA





Показать сообщения:    

Текущее время: 05-Дек 01:24

Часовой пояс: UTC + 3


Вы не можете начинать темы
Вы не можете отвечать на сообщения
Вы не можете редактировать свои сообщения
Вы не можете удалять свои сообщения
Вы не можете голосовать в опросах
Вы не можете прикреплять файлы к сообщениям
Вы не можете скачивать файлы