Людвиг / Ludwig (Лукино Висконти / Luchino Visconti) [1972, Италия, Франция, Германия (ФРГ), драма, BDRemux 1080p] MVO + DVO + VO (Вихров) + Sub (Rus, Eng) + Original Ita


 

[Цитировать]

Людвиг / Ludwig
Страна: Италия, Франция, Германия (ФРГ)
Жанр: драма
Год выпуска: 1972
Продолжительность: 03:58:31
Перевод: Профессиональный (двухголосый закадровый) ГТРК "Культура"
Перевод: Профессиональный (многоголосый закадровый)
Перевод: Профессиональный (одноголосый закадровый) Film Prestige (текст читает Владимир Вихров)
Cубтитры: русские, английские
Оригинальная аудиодорожка: итальянский-Режиссер: Лукино Висконти / Luchino Visconti
В ролях: Хельмут Бергер, Роми Шнайдер, Тревор Ховард, Сильвана Мангано, Герт Фрёбе, Хельмут Грим, Умберто Орсини, Изабелла Тележиньска, Джон Маулдер-Браун, Соня Петровна, Хайнц Муг, Марк Порель, Александр Аллерсон, Карла Манчини
Описание: История последнего короля Баварии Людвига II (1845-1886) - короля-романтика и идеалиста, пытавшегося стать одним из самых просвещенных монархов Европы, поклонника и покровителя искусств.
IMDb || КиноПоиск-Тип релиза: BDRemux 1080p [Ludwig 1972 1080p GER Blu-ray AVC DTS-HD MA 2.0-iFPD]
Контейнер: MKV
Видео: MPEG-4 AVC Video, 1920x1080 at 23.976 fps, 19499 kbps
Аудио#1: Russian: 48 kHz, AC3, 2.0 ch, 192 kbps
Аудио#2: Russian: 48 kHz, AC3, 2.0 ch, 192 kbps
Аудио#3: Russian: 48 kHz, AC3, 2.0 ch, 192 kbps
Аудио#4: Italian: 48 kHz, DTS-HD MA, 2.0 ch, 1301 kbps (DTS Core: 2.0 / 48 kHz / 768 kbps / 24-bit)
Формат субтитров: softsub (SRT)
Сэмпл

Дополнительно

За отечественные переводы спасибо se7777777en, miha2154 и Rusalochka.
Под многоголосым переводом немецкий дубляж.

MediaInfo

General
Unique ID : 187818523661025784578897307937055077175 (0x8D4C88297AECA166BAF5D516C5167337)
Complete name : I:\Людвиг\Ludwig.1972.BDRemux. rutracker.mkv
Format : Matroska
Format version : Version 2
File size : 35.6 GiB
Duration : 3h 58mn
Overall bit rate mode : Variable
Overall bit rate : 21.4 Mbps
Movie name : Release for RuTracker
Encoded date : UTC 2015-03-09 22:22:48
Writing application : mkvmerge v5.0.1 ('Es ist Sommer') built on Nov 6 2011 16:23:40
Writing library : libebml v1.2.2 + libmatroska v1.3.0
Video
ID : 1
Format : AVC
Format/Info : Advanced Video Codec
Format profile : High@L4.1
Format settings, CABAC : Yes
Format settings, ReFrames : 4 frames
Codec ID : V_MPEG4/ISO/AVC
Duration : 3h 58mn
Bit rate mode : Variable
Maximum bit rate : 26.0 Mbps
Width : 1 920 pixels
Height : 1 080 pixels
Display aspect ratio : 16:9
Frame rate mode : Constant
Frame rate : 23.976 fps
Standard : NTSC
Color space : YUV
Chroma subsampling : 4:2:0
Bit depth : 8 bits
Scan type : Progressive
Title : Ludwig.1972.BDRemux. rutracker
Language : Italian
Default : Yes
Forced : No
Color primaries : BT.709
Transfer characteristics : BT.709
Matrix coefficients : BT.709
Audio #1
ID : 2
Format : AC-3
Format/Info : Audio Coding 3
Mode extension : CM (complete main)
Format settings, Endianness : Big
Codec ID : A_AC3
Duration : 3h 58mn
Bit rate mode : Constant
Bit rate : 192 Kbps
Channel(s) : 2 channels
Channel positions : Front: L R
Sampling rate : 48.0 KHz
Bit depth : 16 bits
Compression mode : Lossy
Stream size : 328 MiB (1%)
Title : ГТРК "Культура"
Language : Russian
Default : Yes
Forced : No
Audio #2
ID : 3
Format : AC-3
Format/Info : Audio Coding 3
Mode extension : CM (complete main)
Format settings, Endianness : Big
Codec ID : A_AC3
Duration : 3h 58mn
Bit rate mode : Constant
Bit rate : 192 Kbps
Channel(s) : 2 channels
Channel positions : Front: L R
Sampling rate : 48.0 KHz
Bit depth : 16 bits
Compression mode : Lossy
Stream size : 328 MiB (1%)
Language : Russian
Default : No
Forced : No
Audio #3
ID : 4
Format : AC-3
Format/Info : Audio Coding 3
Mode extension : CM (complete main)
Format settings, Endianness : Big
Codec ID : A_AC3
Duration : 3h 58mn
Bit rate mode : Constant
Bit rate : 192 Kbps
Channel(s) : 2 channels
Channel positions : Front: L R
Sampling rate : 48.0 KHz
Bit depth : 16 bits
Compression mode : Lossy
Stream size : 328 MiB (1%)
Title : Film Prestige
Language : Russian
Default : No
Forced : No
Audio #4
ID : 5
Format : DTS
Format/Info : Digital Theater Systems
Format profile : MA / Core
Mode : 16
Format settings, Endianness : Big
Codec ID : A_DTS
Duration : 3h 58mn
Bit rate mode : Variable
Bit rate : Unknown / 768 Kbps
Channel(s) : 2 channels
Channel positions : Front: L R
Sampling rate : 48.0 KHz
Bit depth : 24 bits
Compression mode : Lossless / Lossy
Language : Italian
Default : No
Forced : No
Text #1
ID : 6
Format : UTF-8
Codec ID : S_TEXT/UTF8
Codec ID/Info : UTF-8 Plain Text
Language : Russian
Default : No
Forced : No
Text #2
ID : 7
Format : UTF-8
Codec ID : S_TEXT/UTF8
Codec ID/Info : UTF-8 Plain Text
Language : English
Default : No
Forced : No
Menu
00:00:00.000 : en:00:00:00.000
00:10:43.476 : en:00:10:43.476
00:24:59.915 : en:00:24:59.915
00:43:49.626 : en:00:43:49.626
01:08:25.392 : en:01:08:25.392
01:39:51.276 : en:01:39:51.276
01:51:16.878 : en:01:51:16.878
02:06:42.636 : en:02:06:42.636
02:27:14.909 : en:02:27:14.909
02:46:43.201 : en:02:46:43.201
03:11:43.617 : en:03:11:43.617
03:52:17.214 : en:03:52:17.214



Показать сообщения:    

Текущее время: 06-Дек 17:10

Часовой пояс: UTC + 3


Вы не можете начинать темы
Вы не можете отвечать на сообщения
Вы не можете редактировать свои сообщения
Вы не можете удалять свои сообщения
Вы не можете голосовать в опросах
Вы не можете прикреплять файлы к сообщениям
Вы не можете скачивать файлы