Агирре, Гнев Божий / Aguirre, der Zorn Gottes (Вернер Херцог / Werner Herzog) [1972, Германия (ФРГ), Перу, Мексика, драма, BDRemux 1080p] MVO (Triumph Video) + VO + Sub Rus + Original Ger


 

[Цитировать]

Агирре, Гнев Божий / Aguirre, der Zorn Gottes
Страна: Германия (ФРГ), Перу, Мексика
Жанр: драма
Год выпуска: 1972
Продолжительность: 01:34:34
Перевод 1: Профессиональный (многоголосый закадровый) Triumph Video
Перевод 2: Одноголосый закадровый - А. Казаков
Cубтитры: русские
Оригинальная аудиодорожка: немецкий
Режиссер: Вернер Херцог / Werner Herzog
В ролях: Клаус Кински, Рэй Гуэрра, Дель Негро, Хелена Рохо, Сесилия Ривера, Даниэль Адес, Алехандро Репуллес, Армандо Поланьа, Эдвард Роулэнд, Питер Берлинг
Описание: После завоевания испанцами государства инков возникла легенда о сказочной стране Эльдорадо, которая затерялась в бесчисленных болотах бассейна Амазонки. В январе 1561 года на поиски этой страны впервые отправилась большая экспедиция испанских авантюристов под предводительством Гонсало Писарро. В непроходимые джунгли был выслан отряд из 40 человек, которые должны были сплавиться на плотах и найти Эльдорадо. Отряд разведчиков возглавили дон Педро де Урсуа, которого сопровождала его возлюбленная донна Инес, и его помощник дон Лопе де Агирре вместе с дочерью Лопес. Не прошло и нескольких дней, как отряд стал терять своих воинов одного за другим. Они гибли от стрел индейцев и тонули в бурных потоках реки. Урсуа решил повернуть отряд, но Агирре поднял бунт и взял власть в свои руки с целью продолжить поиски мифической страны. Одержимый жаждой золота, он повел людей в джунгли, но экспедиции не суждено было вернуться.
Сэмпл: http://multi-up.com/1037201
Тип релиза: BDRemux 1080p
Контейнер: MKV
Видео: 1920x1080, 23998 kbps, 23,976 fps
Аудио 1: Russian: AC3; 48.0 KHz; 1ch; 128 Kbps - многоголосный
Аудио 2: Russian: AC3; 48.0 KHz; 2ch; 192 Kbps - одноголосный
Аудио 3: German: DTS-HD Master Audio / 2.0 / 48 kHz / 967 kbps / 16-bit (DTS Core: 2.0 / 48 kHz / 768 kbps / 16-bit)

MediaInfo

General
Unique ID : 182077610567460411461060383140203496517 (0x88FADF4B1567872EB43825C7E4348445)
Complete name : L:\Aguirre, der Zorn Gottes 1972 1080p Blu-ray Remux.mkv
Format : Matroska
Format version : Version 2
File size : 16.7 GiB
Duration : 1h 34mn
Overall bit rate mode : Variable
Overall bit rate : 25.3 Mbps
Movie name : Aguirre, der Zorn Gottes 1972 1080p Blu-ray Remux AVC DTS-HD MA 2.0 - KRaLiMaRKo
Encoded date : UTC 2015-03-08 16:44:10
Writing application : mkvmerge v5.5.0 ('Healer') built on Apr 6 2012 21:43:24
Writing library : libebml v1.2.3 + libmatroska v1.3.0
Video
ID : 1
Format : AVC
Format/Info : Advanced Video Codec
Format profile : High@L4.1
Format settings, CABAC : Yes
Format settings, ReFrames : 4 frames
Codec ID : V_MPEG4/ISO/AVC
Duration : 1h 34mn
Bit rate mode : Variable
Maximum bit rate : 32.0 Mbps
Width : 1 920 pixels
Height : 1 080 pixels
Display aspect ratio : 16:9
Frame rate mode : Constant
Frame rate : 23.976 fps
Standard : NTSC
Color space : YUV
Chroma subsampling : 4:2:0
Bit depth : 8 bits
Scan type : Progressive
Language : German
Default : Yes
Forced : No
Color primaries : BT.709
Transfer characteristics : BT.709
Matrix coefficients : BT.709
Audio #1
ID : 2
Format : AC-3
Format/Info : Audio Coding 3
Mode extension : CM (complete main)
Format settings, Endianness : Big
Codec ID : A_AC3
Duration : 1h 34mn
Bit rate mode : Constant
Bit rate : 128 Kbps
Channel count : 1 channel
Channel positions : Front: C
Sampling rate : 48.0 KHz
Bit depth : 16 bits
Compression mode : Lossy
Stream size : 86.6 MiB (1%)
Title : MVO Triumph Video
Language : Russian
Default : No
Forced : No
Audio #2
ID : 3
Format : AC-3
Format/Info : Audio Coding 3
Mode extension : CM (complete main)
Format settings, Endianness : Big
Codec ID : A_AC3
Duration : 1h 34mn
Bit rate mode : Constant
Bit rate : 192 Kbps
Channel count : 2 channels
Channel positions : Front: L R
Sampling rate : 48.0 KHz
Bit depth : 16 bits
Compression mode : Lossy
Stream size : 130 MiB (1%)
Title : VO А. Казаков
Language : Russian
Default : No
Forced : No
Audio #3
ID : 4
Format : DTS
Format/Info : Digital Theater Systems
Format profile : MA / Core
Mode : 16
Format settings, Endianness : Big
Codec ID : A_DTS
Duration : 1h 34mn
Bit rate mode : Variable
Bit rate : Unknown / 768 Kbps
Channel count : 2 channels
Channel positions : Front: L R
Sampling rate : 48.0 KHz
Bit depth : 16 bits
Compression mode : Lossless / Lossy
Language : English
Default : No
Forced : No
Text
ID : 5
Format : UTF-8
Codec ID : S_TEXT/UTF8
Codec ID/Info : UTF-8 Plain Text
Language : Russian
Default : No
Forced : No
Menu
00:00:00.000 : en:00:00:00.000
00:05:15.565 : en:00:05:15.565
00:09:46.503 : en:00:09:46.503
00:13:35.023 : en:00:13:35.023
00:23:05.759 : en:00:23:05.759
00:28:45.015 : en:00:28:45.015
00:35:20.452 : en:00:35:20.452
00:41:54.554 : en:00:41:54.554
00:47:56.499 : en:00:47:56.499
00:51:30.212 : en:00:51:30.212
00:57:18.852 : en:00:57:18.852
01:02:39.923 : en:01:02:39.923
01:05:43.731 : en:01:05:43.731
01:11:15.897 : en:01:11:15.897
01:14:24.794 : en:01:14:24.794
01:17:17.132 : en:01:17:17.132
01:20:28.574 : en:01:20:28.574
01:26:07.829 : en:01:26:07.829

Скриншоты




Показать сообщения:    

Текущее время: 09-Дек 14:41

Часовой пояс: UTC + 3


Вы не можете начинать темы
Вы не можете отвечать на сообщения
Вы не можете редактировать свои сообщения
Вы не можете удалять свои сообщения
Вы не можете голосовать в опросах
Вы не можете прикреплять файлы к сообщениям
Вы не можете скачивать файлы