Старая радость / Old Joy (Келли Райхардт / Kelly Reichardt) [2006, США, драма, BDRip 720p] Original (Eng) + Sub (Rus, Eng)


 

[Цитировать]

Старая радость / Old Joy
Год выпуска: 2006
Страна: США
Жанр: драма
Продолжительность: 01:13:15
Перевод: субтитры
Cубтитры: русские, английские
Оригинальная аудиодорожка: английская
Оглавление: 10 глав
Режиссёр: Келли Райхардт /Kelly Reichardt/
В ролях: Дэниэл Лондон /Daniel London/, Уилл Олдхэм /Will Oldham/, Таня Смит /Tanya Smith/, Робин Розенберг /Robin Rosenberg/, Кери Моран /Keri Moran/
Описание:
Два друга после долгой разлуки отправляются к горячим источникам где-то под Орегоном. В ходе спокойного и бессобытийного путешествия они понимают, что их миры разошлись. Один из друзей успокоился в унылом быту, другой — все такой же перекати поле, но явно разочаровался в своем бесконечном путешествии. Встреча противоположностей и попытка синтеза двух стилей жизни.
Дополнительная информация:
IMDB User Rating→: 6.7/10 (3,958 votes)
Рейтинг фильма КиноПоиск.Ru→: 6.820 (91 голос)
Качество: BDRip (by EA)
Контейнер: MKV
Видеопоток: 1280x720p, 23.976 fps, x264 ~9429 kbps
Аудиопоток (ENG): DD 2.0, 48 kHz, 640 kbps
Субтитры №1 (RUS): SRT/UTF8 | bdon
Субтитры №2 (ENG): SRT/UTF8
Сэмпл: Яндекс.Диск→, multi-up→

x264 Log

x264 [info]: frame I:  498 Avg QP:18.15  size:107067
x264 [info]: frame P:18211 Avg QP:19.08  size: 61549
x264 [info]: frame B:86664 Avg QP:19.91  size: 47503
x264 [info]: consecutive B-frames: 0.8%  1.3%  4.1% 13.4% 12.2% 28.8% 10.0%  4.8%  6.8%  4.4%  3.2%  3.5%  4.1%  2.4%
Encoded 105373 frames, 5.793 fps, 9631.14 kb/s, 5045.9 MB

MediaInfo

General
Unique ID                   : 217403088394825726351636455088138281317 (0xA38E4FD1BE67F768B9E8295C98D4E165)
Complete name               : Old.Joy.2006.720p.BDRip.x264.DD.SRT-EA.mkv
Format                      : Matroska
Format version              : Version 4 / Version 2
File size                   : 5.26 GiB
Duration                    : 1h 13mn
Overall bit rate            : 10.3 Mbps
Movie name                  : Old Joy (2006) 720p BDRip by EA
Encoded date                : UTC 2015-03-06 01:28:52
Writing application         : mkvmerge v7.5.0 ('Glass Culture') 64bit built on Jan  4 2015 16:48:44
Writing library             : libebml v1.3.1 + libmatroska v1.4.2
DURATION                    : 01:09:10.188000000
NUMBER_OF_FRAMES            : 461
NUMBER_OF_BYTES             : 19578
_STATISTICS_WRITING_APP     : mkvmerge v7.5.0 ('Glass Culture') 64bit built on Jan  4 2015 16:48:44
_STATISTICS_WRITING_DATE_UT : 2015-03-06 01:28:52
_STATISTICS_TAGS            : BPS DURATION NUMBER_OF_FRAMES NUMBER_OF_BYTES
Video
ID                          : 1
Format                      : AVC
Format/Info                 : Advanced Video Codec
Format profile              : High@L4.1
Format settings, CABAC      : Yes
Format settings, ReFrames   : 9 frames
Codec ID                    : V_MPEG4/ISO/AVC
Duration                    : 1h 13mn
Bit rate                    : 9 429 Kbps
Width                       : 1 280 pixels
Height                      : 720 pixels
Display aspect ratio        : 16:9
Frame rate mode             : Constant
Frame rate                  : 23.976 fps
Color space                 : YUV
Chroma subsampling          : 4:2:0
Bit depth                   : 8 bits
Scan type                   : Progressive
Bits/(Pixel*Frame)          : 0.427
Stream size                 : 4.82 GiB (92%)
Title                       : 1280x720, 23.976 fps, x264 ~9631 kbps
Writing library             : x264 core 144 r0+2574 9abcd72 t_mod_Custom [8-bit@all X86_64]
Encoding settings           : cabac=1 / ref=9 / deblock=1:-3:-3 / analyse=0x3:0x113 / me=umh / subme=10 / psy=1 / fade_compensate=0.00 / psy_rd=1.10:0.00 / mixed_ref=1 / me_range=32 / chroma_me=1 / trellis=2 / 8x8dct=1 / cqm=0 / deadzone=21,11 / fast_pskip=0 / chroma_qp_offset=-2 / threads=12 / lookahead_threads=3 / sliced_threads=0 / nr=0 / decimate=0 / interlaced=0 / bluray_compat=0 / constrained_intra=0 / fgo=0 / bframes=13 / b_pyramid=2 / b_adapt=2 / b_bias=0 / direct=3 / weightb=1 / open_gop=0 / weightp=2 / keyint=240 / keyint_min=23 / scenecut=40 / intra_refresh=0 / rc_lookahead=50 / rc=crf / mbtree=0 / crf=18.8000 / qcomp=0.75 / qpmin=0:0:0 / qpmax=69:69:69 / qpstep=4 / vbv_maxrate=62500 / vbv_bufsize=78125 / crf_max=0.0 / nal_hrd=none / filler=0 / ip_ratio=1.20 / pb_ratio=1.10 / aq=1:0.60 / aq-sensitivity=10.00 / aq-factor=1.00:1.00:1.00 / aq2=1:0.50 / aq2-sensitivity=15.00 / aq2-factor=1.00:1.00:1.00 / aq3=0
Language                    : English
Default                     : Yes
Forced                      : No
Color primaries             : BT.709
Transfer characteristics    : BT.709
Matrix coefficients         : BT.709
Color range                 : Limited
DURATION                    : 01:13:14.933000000
NUMBER_OF_FRAMES            : 105373
NUMBER_OF_BYTES             : 5291024318
_STATISTICS_WRITING_APP     : mkvmerge v7.5.0 ('Glass Culture') 64bit built on Jan  4 2015 16:48:44
_STATISTICS_WRITING_DATE_UT : 2015-03-06 01:28:52
_STATISTICS_TAGS            : BPS DURATION NUMBER_OF_FRAMES NUMBER_OF_BYTES
Audio
ID                          : 2
Format                      : AC-3
Format/Info                 : Audio Coding 3
Mode extension              : CM (complete main)
Format settings, Endianness : Big
Codec ID                    : A_AC3
Duration                    : 1h 13mn
Bit rate mode               : Constant
Bit rate                    : 640 Kbps
Channel(s)                  : 2 channels
Channel positions           : Front: L R
Sampling rate               : 48.0 KHz
Bit depth                   : 16 bits
Compression mode            : Lossy
Stream size                 : 335 MiB (6%)
Title                       : ENG DD 2.0, 48 kHz, 640 kbps
Language                    : English
Default                     : Yes
Forced                      : No
Text #1
ID                          : 3
Format                      : UTF-8
Codec ID                    : S_TEXT/UTF8
Codec ID/Info               : UTF-8 Plain Text
Title                       : RUS bdon SRT
Language                    : Russian
Default                     : Yes
Forced                      : No
Text #2
ID                          : 4
Format                      : UTF-8
Codec ID                    : S_TEXT/UTF8
Codec ID/Info               : UTF-8 Plain Text
Title                       : ENG SRT
Language                    : English
Default                     : No
Forced                      : No
Menu
00:00:00.000                : en:00:00:00.000
00:06:57.959                : en:00:06:57.959
00:15:18.835                : en:00:15:18.835
00:26:19.870                : en:00:26:19.870
00:35:56.863                : en:00:35:56.863
00:42:43.144                : en:00:42:43.144
00:48:05.800                : en:00:48:05.800
00:54:53.081                : en:00:54:53.081
01:02:07.140                : en:01:02:07.140
01:10:53.040                : en:01:10:53.040

Скриншоты


Source vs. EA





Показать сообщения:    

Текущее время: 10-Дек 17:47

Часовой пояс: UTC + 3


Вы не можете начинать темы
Вы не можете отвечать на сообщения
Вы не можете редактировать свои сообщения
Вы не можете удалять свои сообщения
Вы не можете голосовать в опросах
Вы не можете прикреплять файлы к сообщениям
Вы не можете скачивать файлы