Царство красоты / An Eye for Beauty / Le règne de la beauté (Дени Аркан / Denys Arcand) [2014, Канада, драма, BDRip 1080p] MVO (Позитив по заказу РР) + Sub Fre, Eng + Original Fre


 

[Цитировать]

Царство красоты / An Eye for Beauty / Le règne de la beauté
Страна: Канада
Студия: Cinémaginaire Inc.
Жанр: драма
Год выпуска: 2014
Продолжительность: 01:41:59
Перевод: Профессиональный (многоголосый закадровый) Позитив по заказу РР
Cубтитры: Fre, Eng
Оригинальная аудиодорожка: французский
Режиссер: Дени Аркан / Denys Arcand
В ролях: Эрик Брунэо, Мелани Тьерри, Мелани Меркоски, Мари-Жозе Кроз, Мэтью Куэснел, Мишель Форге, Женевьева Буавен-Русси, Мэгали Лепин Блондо, Ив Жак, Хуана Акоста
Описание: Люк — блестящий молодой архитектор, чей талант еще не признали. Он живет спокойной жизнью с женой Стефани. Жизнь Люка кажется идеальной, но однажды на симпозиуме в Торонто, он встречает таинственную женщину, которая изменит его жизнь…
Доп. информация: За дорожку Позитив по заказу РР спасибо аноним

Тип релиза: BDRip 1080p
Контейнер: MKV
Видео: MPEG-4 AVC, 10.9 Mбит/с, 1920x1038, 23,976 fps
Аудио: Rus, DTS, 1510 kb/s (6 ch), 48 kHz
Аудио 2: Fre, DTS, 1510 kb/s (6 ch), 48 kHz
Формат субтитров: softsub (SRT)

MediaInfo

x264 [info]: frame I:1028 Avg QP:16.50 size:236460
x264 [info]: frame P:28910 Avg QP:17.77 size:109812
x264 [info]: frame B:116781 Avg QP:19.36 size: 44110
Format : Matroska
Format version : Version 4 / Version 2
File size : 10.1 GiB
Duration : 1h 41mn
Overall bit rate : 14.2 Mbps
Movie name : Царство красоты. (Tonik)
Encoded date : UTC 2015-03-06 17:33:46
Writing application : mkvmerge v7.1.0 ('Good Love') 64bit built on Jul 27 2014 13:06:55
Writing library : libebml v1.3.0 + libmatroska v1.4.1
_STATISTICS_WRITING_APP : mkvmerge v7.1.0 ('Good Love') 64bit built on Jul 27 2014 13:06:55
_STATISTICS_WRITING_DATE_UTC : 2015-03-06 17:33:46
_STATISTICS_TAGS : BPS DURATION NUMBER_OF_FRAMES NUMBER_OF_BYTES
DURATION : 01:41:59.414000000
NUMBER_OF_FRAMES : 573695
NUMBER_OF_BYTES : 1154274340
Video
ID : 1
Format : AVC
Format/Info : Advanced Video Codec
Format profile : High@L4.1
Format settings, CABAC : Yes
Format settings, ReFrames : 4 frames
Codec ID : V_MPEG4/ISO/AVC
Duration : 1h 41mn
Bit rate : 10.9 Mbps
Width : 1 920 pixels
Height : 1 038 pixels
Display aspect ratio : 1.85:1
Frame rate mode : Constant
Frame rate : 23.976 fps
Color space : YUV
Chroma subsampling : 4:2:0
Bit depth : 8 bits
Scan type : Progressive
Bits/(Pixel*Frame) : 0.229
Stream size : 7.78 GiB (77%)
Writing library : x264 core 142 r2431+42 c69a006 tMod [8-bit@4:2:0 X86_64]
Encoding settings : cabac=1 / ref=4 / deblock=1:-3:-3 / analyse=0x3:0x133 / me=umh / subme=10 / psy=1 / fade_compensate=0.00 / psy_rd=1.05:0.00 / mixed_ref=1 / me_range=24 / chroma_me=1 / trellis=2 / 8x8dct=1 / cqm=0 / deadzone=21,11 / fast_pskip=1 / chroma_qp_offset=-2 / threads=12 / lookahead_threads=2 / sliced_threads=0 / nr=0 / decimate=1 / interlaced=0 / bluray_compat=0 / constrained_intra=0 / fgo=0 / bframes=8 / b_pyramid=2 / b_adapt=2 / b_bias=0 / direct=3 / weightb=1 / open_gop=0 / weightp=2 / keyint=250 / keyint_min=23 / scenecut=40 / intra_refresh=0 / rc=crf / mbtree=0 / crf=18.0000 / qcomp=0.65 / qpmin=0:0:0 / qpmax=69:69:69 / qpstep=4 / ip_ratio=1.30 / pb_ratio=1.20 / aq=4:0.65 / aq-sensitivity=10.00 / aq-factor=1.00:1.00:1.00 / aq2=0 / aq3=0
Language : English
Default : Yes
Forced : No
Matrix coefficients : BT.709
_STATISTICS_WRITING_APP : mkvmerge v7.1.0 ('Good Love') 64bit built on Jul 27 2014 13:06:55
_STATISTICS_WRITING_DATE_UTC : 2015-03-06 17:33:46
_STATISTICS_TAGS : BPS DURATION NUMBER_OF_FRAMES NUMBER_OF_BYTES
DURATION : 01:41:59.405000000
NUMBER_OF_FRAMES : 146719
NUMBER_OF_BYTES : 8568919210
Audio #1
ID : 2
Format : DTS
Format/Info : Digital Theater Systems
Mode : 16
Format settings, Endianness : Big
Codec ID : A_DTS
Duration : 1h 41mn
Bit rate mode : Constant
Bit rate : 1 509 Kbps
Channel(s) : 6 channels
Channel positions : Front: L C R, Side: L R, LFE
Sampling rate : 48.0 KHz
Bit depth : 16 bits
Compression mode : Lossy
Stream size : 1.08 GiB (11%)
Title : Позитив по заказу РР
Language : Russian
Default : Yes
Forced : No
Audio #2
ID : 3
Format : DTS
Format/Info : Digital Theater Systems
Mode : 16
Format settings, Endianness : Big
Codec ID : A_DTS
Duration : 1h 41mn
Bit rate mode : Constant
Bit rate : 1 509 Kbps
Channel(s) : 6 channels
Channel positions : Front: L C R, Side: L R, LFE
Sampling rate : 48.0 KHz
Bit depth : 16 bits
Compression mode : Lossy
Stream size : 1.08 GiB (11%)
Language : French
Default : No
Forced : No
Text #1
ID : 4
Format : UTF-8
Codec ID : S_TEXT/UTF8
Codec ID/Info : UTF-8 Plain Text
Language : English
Default : No
Forced : No
Text #2
ID : 5
Format : UTF-8
Codec ID : S_TEXT/UTF8
Codec ID/Info : UTF-8 Plain Text
Language : French
Default : No
Forced : No
Text #3
ID : 6
Format : UTF-8
Codec ID : S_TEXT/UTF8
Codec ID/Info : UTF-8 Plain Text
Title : SDH
Language : French
Default : No
Forced : No
Menu
00:00:00.000 : en:00:00:00.000
00:05:04.554 : en:00:05:04.554
00:12:20.657 : en:00:12:20.657
00:21:33.542 : en:00:21:33.542
00:28:27.456 : en:00:28:27.456
00:35:36.551 : en:00:35:36.551
00:43:46.707 : en:00:43:46.707
00:49:01.522 : en:00:49:01.522
00:53:23.450 : en:00:53:23.450
00:59:21.141 : en:00:59:21.141
01:05:45.817 : en:01:05:45.817
01:11:55.186 : en:01:11:55.186
01:19:54.206 : en:01:19:54.206
01:24:30.274 : en:01:24:30.274
01:31:42.080 : en:01:31:42.080
01:36:15.853 : en:01:36:15.853

Скриншоты




Показать сообщения:    

Текущее время: 03-Дек 18:43

Часовой пояс: UTC + 3


Вы не можете начинать темы
Вы не можете отвечать на сообщения
Вы не можете редактировать свои сообщения
Вы не можете удалять свои сообщения
Вы не можете голосовать в опросах
Вы не можете прикреплять файлы к сообщениям
Вы не можете скачивать файлы