Дети небес / Bacheha-Ye aseman / The Children of Heaven (Маджид Маджиди / Majid Majidi) [1997, Иран, драма, семейный, BDRip 720p] MVO + AVO (П. Карцев) + Sub Eng + Original


 

[Цитировать]

Дети небес / Bacheha-Ye aseman / The Children of Heaven
Страна: Иран
Жанр: драма, семейный
Год выпуска: 1997
Продолжительность: 01:27:57
Перевод: Профессиональный (многоголосый закадровый)
Перевод 2: Авторский (одноголосый закадровый) П. Карцев
Cубтитры: английские
Оригинальная аудиодорожка: персидский
Режиссер: Маджид Маджиди / Majid Majidi
В ролях: Мухаммад Амир Наджи, Амир Фаррух Хашемян, Бахаре Седдики, Нафизе Джафар-Мухаммади, Фереште Сарабанди, Камаль Миркарими, Бехзад Рафи, Дариуш Мохтари, Мухаммад-Хасан Хусейнян, Масуме Дэйр
Описание: По пути из школы Али, мальчик из бедной семьи, теряет только что взятую из починки единственную пару обуви своей младшей сестры. Это была серьезная оплошность. И дети решают ничего не говорить родителям, а чтобы те ничего не заметили, придумывают маленькую хитрость. Но, как это иногда бывает, невинная затея приводит к неожиданным обстоятельствам.

Сэмпл: http://multi-up.com/1036753
Тип релиза: BDRip 720p
Контейнер: MKV
Видео: MPEG4 Video (H264) 1280x720 23.976fps 8 500 Kbps
Аудио: Русский AC-3 / 2 ch / 48.0 KHz / 192 Kbps
Аудио 2: Русский AC-3 / 1 ch / 48.0 KHz / 96.0 Kbps
Аудио 3: Persian AC-3 / 2 ch / 48.0 KHz / 384 Kbps
Формат субтитров: softsub (SRT)

MediaInfo

General
Unique ID : 223227043316658134687823962368858892852 (0xA7EFF6F75E9284B487EAD4365F3BAA34)
Complete name : C:\Users\Вика\Desktop\Children.of.Heaven.1997.720p.BDRip.mkv
Format : Matroska
Format version : Version 4 / Version 2
File size : 5.63 GiB
Duration : 1h 27mn
Overall bit rate : 9 171 Kbps
Encoded date : UTC 2015-03-06 07:25:07
Writing application : mkvmerge v7.4.0 ('Circles') 64bit built on Dec 12 2014 12:19:56
Writing library : libebml v1.3.0 + libmatroska v1.4.1
DURATION : 01:27:35.010000000
NUMBER_OF_FRAMES : 666
NUMBER_OF_BYTES : 20689
_STATISTICS_WRITING_APP : mkvmerge v7.4.0 ('Circles') 64bit built on Dec 12 2014 12:19:56
_STATISTICS_WRITING_DATE_UTC : 2015-03-06 07:25:07
_STATISTICS_TAGS : BPS DURATION NUMBER_OF_FRAMES NUMBER_OF_BYTES
Video
ID : 1
Format : AVC
Format/Info : Advanced Video Codec
Format profile : High@L4.1
Format settings, CABAC : Yes
Format settings, ReFrames : 9 frames
Codec ID : V_MPEG4/ISO/AVC
Duration : 1h 27mn
Bit rate : 8 500 Kbps
Width : 1 280 pixels
Height : 720 pixels
Display aspect ratio : 16:9
Frame rate mode : Constant
Frame rate : 23.976 fps
Color space : YUV
Chroma subsampling : 4:2:0
Bit depth : 8 bits
Scan type : Progressive
Bits/(Pixel*Frame) : 0.385
Stream size : 5.11 GiB (91%)
Writing library : x264 core 129 r2245+704+36 8e61944 tMod+MixAQ [8-bit@4:2:0 X86]
Encoding settings : cabac=1 / ref=9 / deblock=1:-3:-3 / analyse=0x3:0x133 / me=tesa / subme=11 / psy=1 / fade_compensate=0.00 / psy_rd=1.00:0.10 / mixed_ref=1 / me_range=32 / chroma_me=1 / trellis=2 / 8x8dct=1 / cqm=0 / deadzone=21,11 / fast_pskip=0 / chroma_qp_offset=-3 / threads=12 / lookahead_threads=2 / sliced_threads=0 / nr=0 / decimate=0 / interlaced=0 / bluray_compat=0 / constrained_intra=0 / fgo=0 / bframes=10 / b_pyramid=2 / b_adapt=2 / b_bias=0 / direct=3 / weightb=1 / open_gop=0 / weightp=2 / keyint=250 / keyint_min=23 / scenecut=40 / intra_refresh=0 / rc_lookahead=80 / rc=2pass / mbtree=1 / bitrate=8500 / ratetol=1.0 / qcomp=0.70 / qpmin=0 / qpmax=69 / qpstep=4 / cplxblur=20.0 / qblur=0.5 / ip_ratio=1.40 / aq=1 / aq-strength=0.60 / aq-sensitivity=10.00 / aq-ifactor=1.00 / aq-pfactor=1.00 / aq-bfactor=1.00 / aq2=0 / zones=722,3190,b=1.3/34449,34987,b=1.45
Language : Persian
Default : Yes
Forced : No
DURATION : 01:27:56.980000000
NUMBER_OF_FRAMES : 126521
NUMBER_OF_BYTES : 5604665598
_STATISTICS_WRITING_APP : mkvmerge v7.4.0 ('Circles') 64bit built on Dec 12 2014 12:19:56
_STATISTICS_WRITING_DATE_UTC : 2015-03-06 07:25:07
_STATISTICS_TAGS : BPS DURATION NUMBER_OF_FRAMES NUMBER_OF_BYTES
Audio #1
ID : 2
Format : AC-3
Format/Info : Audio Coding 3
Mode extension : CM (complete main)
Format settings, Endianness : Big
Codec ID : A_AC3
Duration : 1h 27mn
Bit rate mode : Constant
Bit rate : 192 Kbps
Channel(s) : 2 channels
Channel positions : Front: L R
Sampling rate : 48.0 KHz
Bit depth : 16 bits
Compression mode : Lossy
Stream size : 121 MiB (2%)
Title : MVO
Language : Russian
Default : Yes
Forced : No
Audio #2
ID : 3
Format : AC-3
Format/Info : Audio Coding 3
Mode extension : CM (complete main)
Format settings, Endianness : Big
Codec ID : A_AC3
Duration : 1h 27mn
Bit rate mode : Constant
Bit rate : 96.0 Kbps
Channel(s) : 1 channel
Channel positions : Front: C
Sampling rate : 48.0 KHz
Bit depth : 16 bits
Compression mode : Lossy
Stream size : 60.4 MiB (1%)
Title : AVO (П. Карцев)
Language : Russian
Default : No
Forced : No
Audio #3
ID : 4
Format : AC-3
Format/Info : Audio Coding 3
Mode extension : CM (complete main)
Format settings, Endianness : Big
Codec ID : A_AC3
Duration : 1h 27mn
Bit rate mode : Constant
Bit rate : 384 Kbps
Channel(s) : 2 channels
Channel positions : Front: L R
Sampling rate : 48.0 KHz
Bit depth : 16 bits
Compression mode : Lossy
Stream size : 242 MiB (4%)
Language : Persian
Default : No
Forced : No
Text
ID : 5
Format : UTF-8
Codec ID : S_TEXT/UTF8
Codec ID/Info : UTF-8 Plain Text
Language : English
Default : No
Forced : No
Menu
00:00:00.000 : en:00:00:00.000
00:03:13.760 : en:00:03:13.760
00:08:08.054 : en:00:08:08.054
00:11:37.931 : en:00:11:37.931
00:16:07.700 : en:00:16:07.700
00:18:28.441 : en:00:18:28.441
00:20:49.048 : en:00:20:49.048
00:24:52.891 : en:00:24:52.891
00:27:06.191 : en:00:27:06.191
00:30:32.564 : en:00:30:32.564
00:33:51.963 : en:00:33:51.963
00:36:33.458 : en:00:36:33.458
00:42:12.930 : en:00:42:12.930
00:47:05.056 : en:00:47:05.056
00:53:01.578 : en:00:53:01.578
00:57:44.795 : en:00:57:44.795
01:00:55.385 : en:01:00:55.385
01:03:43.153 : en:01:03:43.153
01:07:04.854 : en:01:07:04.854
01:10:05.201 : en:01:10:05.201
01:12:42.358 : en:01:12:42.358
01:16:43.432 : en:01:16:43.432
01:22:15.297 : en:01:22:15.297
01:25:17.980 : en:01:25:17.980

Скриншоты




Показать сообщения:    

Текущее время: 11-Дек 03:22

Часовой пояс: UTC + 3


Вы не можете начинать темы
Вы не можете отвечать на сообщения
Вы не можете редактировать свои сообщения
Вы не можете удалять свои сообщения
Вы не можете голосовать в опросах
Вы не можете прикреплять файлы к сообщениям
Вы не можете скачивать файлы